<?xml version="1.0" standalone="no"?>
<!DOCTYPE svg PUBLIC "-//W3C//DTD SVG 1.1//EN" "http://www.w3.org/Graphics/SVG/1.1/DTD/svg11.dtd" >
<svg xmlns="http://www.w3.org/2000/svg">
<metadata>Generated by IcoMoon</metadata>
<defs>
<font id="social-icon-font" horiz-adv-x="512">
<font-face units-per-em="512" ascent="480" descent="-32" />
<missing-glyph horiz-adv-x="512" />
<glyph unicode="&#x20;" d="" horiz-adv-x="256" />
<glyph unicode="&#xe600;" d="M151.2 369.1c44.1 0.7 65.2 26.6 62.4 50.1-2.4 19.7-21.4 37.7-57.8 38-30 0.2-49.5-21.9-52.5-44.1-3-22.3 10.9-44.6 47.9-44zM371.8 374.6c42.3 2.4 60.8 23.5 61 44.6 0.3 23.8-22.6 47.6-60.6 44.5-30.5-2.5-48.3-23.5-51-44.5-2.9-23.4 12.8-46.8 50.6-44.6zM398.8 280.5c-105.5-10.6-110.7-11.6-304.8-16.1-81.8-0.4-64.4-280.4 110.4-280.4 166.4 0 367.2 313.9 194.4 296.5zM208.8 34c-152.4 0-131.5 181.1-105.9 182.1 177 7.1 222.3 14.4 285.4 14.4 64.2 0.1-58-196.5-179.5-196.5z" />
<glyph unicode="&#xe601;" d="M322.2 227.3c-31.6 0-54.2-3.7-142.7-7.2-12.8-0.5-23.2-91.1 52.9-91.1 60.8 0 121.9 98.3 89.8 98.3zM432 480h-352c-44.2 0-80-35.8-80-80v-352c0-44.2 35.8-80 80-80h352c44.2 0 80 35.8 80 80v352c0 44.2-35.8 80-80 80zM288.6 321.6c1.4 10.5 10.3 21 25.5 22.3 19 1.5 30.4-10.4 30.3-22.3-0.1-10.6-9.4-21.1-30.5-22.3-18.9-1.1-26.8 10.6-25.3 22.3zM179.6 318.5c1.5 11.1 11.2 22.2 26.2 22.1 18.2-0.1 27.7-9.2 28.9-19 1.4-11.8-9.2-24.7-31.2-25.1-18.4-0.2-25.3 10.9-23.9 22zM230.2 104c-87.4 0-96.1 140-55.2 140.2 97 2.2 99.6 2.8 152.4 8.1 86.4 8.7-14-148.3-97.2-148.3z" />
<glyph unicode="&#xe602;" d="M322.2 227.3c-31.6 0-54.2-3.7-142.7-7.2-12.8-0.5-23.2-91.1 52.9-91.1 60.8 0 121.9 98.3 89.8 98.3zM256 480c-141.4 0-256-114.6-256-256s114.6-256 256-256 256 114.6 256 256-114.6 256-256 256zM288.6 321.6c1.4 10.5 10.3 21 25.5 22.3 19 1.5 30.4-10.4 30.3-22.3-0.1-10.6-9.4-21.1-30.5-22.3-18.9-1.1-26.8 10.6-25.3 22.3zM179.6 318.5c1.5 11.1 11.2 22.2 26.2 22.1 18.2-0.1 27.7-9.2 28.9-19 1.4-11.8-9.2-24.7-31.2-25.1-18.4-0.2-25.3 10.9-23.9 22zM230.2 104c-87.4 0-96.1 140-55.2 140.2 97 2.2 99.6 2.8 152.4 8.1 86.4 8.7-14-148.3-97.2-148.3z" />
<glyph unicode="&#xe603;" d="M256-32c-141.2 0-256 114.8-256 256s114.8 256 256 256 256-114.8 256-256-114.8-256-256-256zM471.9 189c-7.5 2.4-67.7 20.3-136.2 9.3 28.6-78.6 40.2-142.6 42.5-155.9 49 33.2 84 85.7 93.7 146.6zM341.4 22.4c-3.3 19.2-15.9 86-46.6 165.8-0.5-0.2-1-0.3-1.4-0.5-123.3-43-167.6-128.5-171.5-136.6 37-28.8 83.6-46.1 134.1-46.1 30.3 0 59.2 6.2 85.4 17.4zM93.5 77.5c5 8.5 65 107.8 177.7 144.3 2.9 0.9 5.7 1.8 8.6 2.6-5.5 12.4-11.5 24.9-17.7 37.1-109.1-32.7-215.1-31.3-224.7-31.2-0.1-2.2-0.1-4.4-0.1-6.7 0-56.1 21.3-107.4 56.2-146.1zM42 268.5c9.8-0.1 99.9-0.5 202.2 26.6-36.3 64.4-75.4 118.5-81.2 126.5-61.1-28.9-106.9-85.3-121-153.1zM204.8 436.3c6-8.1 45.8-62.2 81.6-128 77.8 29.1 110.7 73.4 114.6 79-38.6 34.3-89.4 55.1-145 55.1-17.6-0.1-34.8-2.2-51.2-6.1zM425.3 361.9c-4.6-6.2-41.3-53.2-122.1-86.2 5.1-10.4 10-21 14.5-31.7 1.6-3.8 3.2-7.5 4.7-11.3 72.8 9.1 145.1-5.5 152.3-7-0.5 51.6-19 99-49.4 136.2z" />
<glyph unicode="&#xe604;" d="M263.6 222.9c1.4 0.5 2.9 0.9 4.3 1.3-2.7 6.2-5.7 12.4-8.9 18.6-54.6-16.3-107.6-15.7-112.4-15.6 0-1.1-0.1-2.2-0.1-3.3 0-28.1 10.6-53.7 28.1-73.1 2.7 4.2 32.7 53.9 89 72.1zM432 480h-352c-44.2 0-80-35.8-80-80v-352c0-44.2 35.8-80 80-80h352c44.2 0 80 35.8 80 80v352c0 44.2-35.8 80-80 80zM256 96c-70.6 0-128 57.4-128 128s57.4 128 128 128 128-57.4 128-128-57.4-128-128-128zM328.5 305.6c-19.3 17.1-44.7 27.5-72.5 27.5-8.8 0-17.4-1.1-25.6-3 3-4 22.9-31.1 40.8-64 38.9 14.6 55.3 36.7 57.3 39.5zM274.7 205.9c-61.7-21.5-83.8-64.3-85.8-68.3 18.5-14.5 41.8-23.1 67.1-23.1 15.1 0 29.6 3.1 42.7 8.7-1.6 9.6-8 43-23.3 82.9-0.3-0.1-0.5-0.2-0.7-0.2zM250.1 259.5c-18.1 32.2-37.7 59.3-40.5 63.2-30.6-14.4-53.5-42.6-60.5-76.6 4.8 0.1 49.8-0.1 101 13.4zM279.6 249.9c2.5-5.2 5-10.5 7.3-15.8 0.8-1.9 1.6-3.8 2.4-5.6 36.4 4.6 72.5-2.8 76.1-3.5-0.2 25.8-9.5 49.5-24.7 68.1-2.4-3.2-20.7-26.7-61.1-43.2zM295.8 211.2c14.3-39.3 20.1-71.3 21.2-78 24.5 16.6 42 42.9 46.9 73.3-3.7 1.2-33.8 10.1-68.1 4.7z" />
<glyph unicode="&#xe605;" d="M263.6 222.9c1.4 0.5 2.9 0.9 4.3 1.3-2.7 6.2-5.7 12.4-8.9 18.6-54.6-16.3-107.6-15.7-112.4-15.6 0-1.1-0.1-2.2-0.1-3.3 0-28.1 10.6-53.7 28.1-73.1 2.7 4.2 32.7 53.9 89 72.1zM250.1 259.5c-18.1 32.2-37.7 59.3-40.5 63.2-30.6-14.4-53.5-42.6-60.5-76.6 4.8 0.1 49.8-0.1 101 13.4zM328.5 305.6c-19.3 17.1-44.7 27.5-72.5 27.5-8.8 0-17.4-1.1-25.6-3 3-4 22.9-31.1 40.8-64 38.9 14.6 55.3 36.7 57.3 39.5zM274.7 205.9c-61.7-21.5-83.8-64.3-85.8-68.3 18.5-14.5 41.8-23.1 67.1-23.1 15.1 0 29.6 3.1 42.7 8.7-1.6 9.6-8 43-23.3 82.9-0.3-0.1-0.5-0.2-0.7-0.2zM256 480c-141.4 0-256-114.6-256-256s114.6-256 256-256 256 114.6 256 256-114.6 256-256 256zM256 96c-70.6 0-128 57.4-128 128s57.4 128 128 128 128-57.4 128-128-57.4-128-128-128zM295.8 211.2c14.3-39.3 20.1-71.3 21.2-78 24.5 16.6 42 42.9 46.9 73.3-3.7 1.2-33.8 10.1-68.1 4.7zM279.6 249.9c2.5-5.2 5-10.5 7.3-15.8 0.8-1.9 1.6-3.8 2.4-5.6 36.4 4.6 72.5-2.8 76.1-3.5-0.2 25.8-9.5 49.5-24.7 68.1-2.4-3.2-20.7-26.7-61.1-43.2z" />
<glyph unicode="&#xe606;" d="M491.2 320c0 0-4.7 33.1-19.1 47.6-18.3 19.1-38.7 19.2-48.1 20.3-67.2 4.9-167.9 4.9-167.9 4.9h-0.2c0 0-100.8 0-167.9-4.9-9.4-1.1-29.8-1.2-48.1-20.3-14.4-14.6-19.1-47.6-19.1-47.6s-4.8-38.9-4.8-77.7v-36.4c0-38.8 4.8-77.7 4.8-77.7s4.7-33.1 19.1-47.6c18.2-19.2 42.2-18.6 52.9-20.6 38.4-3.7 163.2-4.8 163.2-4.8s100.9 0.2 168 5c9.4 1.1 29.8 1.2 48.1 20.3 14.4 14.6 19.1 47.6 19.1 47.6s4.8 38.8 4.8 77.7v36.4c0 38.9-4.8 77.8-4.8 77.8zM206.4 161.7v134.9l129.7-67.7-129.7-67.2z" />
<glyph unicode="&#xe607;" d="M231.2 192.9l64.8 33.6-64.8 33.8v-67.4zM432 480h-352c-44.2 0-80-35.8-80-80v-352c0-44.2 35.8-80 80-80h352c44.2 0 80 35.8 80 80v352c0 44.2-35.8 80-80 80zM376 214.9c0-19.4-2.4-38.8-2.4-38.8s-2.3-16.5-9.5-23.8c-9.1-9.6-19.4-9.6-24-10.2-33.6-2.4-84-2.5-84-2.5s-62.4 0.6-81.6 2.4c-5.3 1-17.3 0.7-26.5 10.3-7.2 7.3-9.5 23.8-9.5 23.8s-2.4 19.4-2.4 38.8v18.2c0 19.4 2.4 38.8 2.4 38.8s2.3 16.5 9.5 23.8c9.1 9.6 19.4 9.6 24 10.2 33.6 2.4 84 2.4 84 2.4h0.1c0 0 50.4 0 84-2.4 4.7-0.6 14.9-0.6 24-10.2 7.2-7.3 9.5-23.8 9.5-23.8s2.4-19.4 2.4-38.8v-18.2z" />
<glyph unicode="&#xe608;" d="M231.2 192.9l64.8 33.6-64.8 33.8v-67.4zM256 480c-141.4 0-256-114.6-256-256s114.6-256 256-256 256 114.6 256 256-114.6 256-256 256zM376 214.9c0-19.4-2.4-38.8-2.4-38.8s-2.3-16.5-9.5-23.8c-9.1-9.6-19.4-9.6-24-10.2-33.6-2.4-84-2.5-84-2.5s-62.4 0.6-81.6 2.4c-5.3 1-17.3 0.7-26.5 10.3-7.2 7.3-9.5 23.8-9.5 23.8s-2.4 19.4-2.4 38.8v18.2c0 19.4 2.4 38.8 2.4 38.8s2.3 16.5 9.5 23.8c9.1 9.6 19.4 9.6 24 10.2 33.6 2.4 84 2.4 84 2.4h0.1c0 0 50.4 0 84-2.4 4.7-0.6 14.9-0.6 24-10.2 7.2-7.3 9.5-23.8 9.5-23.8s2.4-19.4 2.4-38.8v-18.2z" />
<glyph unicode="&#xe609;" d="M495.8 335.6c-2.1-46.7-34.8-110.7-97.9-192-65.3-84.9-120.5-127.3-165.6-127.3-28 0-51.7 25.8-71 77.5-12.9 47.4-25.8 94.7-38.7 142.1-14.4 51.7-29.8 77.5-46.2 77.5-3.6 0-16.2-7.6-37.7-22.6l-22.7 29.2c23.7 20.8 47.1 41.6 70.1 62.5 31.6 27.3 55.3 41.7 71.1 43.1 37.4 3.6 60.3-22 69-76.6 9.3-59 15.8-95.7 19.4-110.1 10.8-48.9 22.6-73.4 35.6-73.4 10 0 25.1 15.9 45.3 47.6 20.1 31.8 30.9 55.9 32.3 72.5 2.9 27.4-7.9 41.1-32.3 41.1-11.5 0-23.3-2.6-35.5-7.9 23.4 77.4 68.5 114.9 135 112.8 49.4-1.5 72.6-33.5 69.8-96z" />
<glyph unicode="&#xe60a;" d="M432 480h-352c-44.2 0-80-35.8-80-80v-352c0-44.2 35.8-80 80-80h352c44.2 0 80 35.8 80 80v352c0 44.2-35.8 80-80 80zM375.9 279.8c-1.1-23.4-17.4-55.4-48.9-96-32.6-42.4-60.2-63.6-82.8-63.6-14 0-25.8 12.9-35.5 38.8-6.5 23.7-12.9 47.4-19.4 71.1-7.2 25.8-14.9 38.8-23.1 38.8-1.8 0-8.1-3.8-18.8-11.3l-11.4 14.4c11.8 10.4 23.5 20.8 35 31.2 15.8 13.7 27.7 20.8 35.6 21.6 18.7 1.8 30.2-11 34.5-38.3 4.7-29.5 7.9-47.8 9.7-55 5.4-24.5 11.3-36.7 17.8-36.7 5 0 12.6 7.9 22.6 23.8s15.4 28 16.2 36.3c1.4 13.7-4 20.6-16.2 20.6-5.7 0-11.7-1.3-17.8-3.9 11.8 38.6 34.3 57.4 67.6 56.3 24.7-0.8 36.3-16.8 34.9-48.1z" />
<glyph unicode="&#xe60b;" d="M256 480c-141.4 0-256-114.6-256-256s114.6-256 256-256 256 114.6 256 256-114.6 256-256 256zM375.9 279.8c-1.1-23.4-17.4-55.4-48.9-96-32.6-42.4-60.2-63.6-82.8-63.6-14 0-25.8 12.9-35.5 38.8-6.5 23.7-12.9 47.4-19.4 71.1-7.2 25.8-14.9 38.8-23.1 38.8-1.8 0-8.1-3.8-18.8-11.3l-11.4 14.4c11.8 10.4 23.5 20.8 35 31.2 15.8 13.7 27.7 20.8 35.6 21.6 18.7 1.8 30.2-11 34.5-38.3 4.7-29.5 7.9-47.8 9.7-55 5.4-24.5 11.3-36.7 17.8-36.7 5 0 12.6 7.9 22.6 23.8s15.4 28 16.2 36.3c1.4 13.7-4 20.6-16.2 20.6-5.7 0-11.7-1.3-17.8-3.9 11.8 38.6 34.3 57.4 67.6 56.3 24.7-0.8 36.3-16.8 34.9-48.1z" />
<glyph unicode="&#xe60c;" d="M512 382.8c-18.8-8.4-39.1-14-60.3-16.5 21.7 13 38.3 33.6 46.2 58.1-20.3-12-42.8-20.8-66.7-25.5-19.2 20.4-46.5 33.1-76.7 33.1-58 0-105-47-105-105 0-8.2 0.9-16.2 2.7-23.9-87.3 4.4-164.7 46.2-216.5 109.8-9-15.5-14.2-33.6-14.2-52.8 0-36.4 18.5-68.6 46.7-87.4-17.2 0.5-33.4 5.3-47.6 13.1 0-0.4 0-0.9 0-1.3 0-50.9 36.2-93.4 84.3-103-8.8-2.4-18.1-3.7-27.7-3.7-6.8 0-13.3 0.7-19.8 1.9 13.4-41.7 52.2-72.1 98.1-73-36-28.2-81.2-45-130.5-45-8.5 0-16.8 0.5-25.1 1.5 46.6-29.9 101.8-47.2 161.1-47.2 193.2 0 298.9 160.1 298.9 298.9 0 4.6-0.1 9.1-0.3 13.6 20.5 14.7 38.3 33.2 52.4 54.3z" />
<glyph unicode="&#xe60d;" d="M432 480h-352c-44.2 0-80-35.8-80-80v-352c0-44.2 35.8-80 80-80h352c44.2 0 80 35.8 80 80v352c0 44.2-35.8 80-80 80zM357.8 276.2c0.1-2.3 0.2-4.5 0.2-6.8 0-69.4-52.8-149.4-149.4-149.4-29.7 0-57.3 8.7-80.5 23.6 4.1-0.5 8.3-0.7 12.5-0.7 24.6 0 47.3 8.4 65.2 22.5-23 0.4-42.4 15.6-49.1 36.5 3.2-0.6 6.5-0.9 9.9-0.9 4.8 0 9.4 0.6 13.8 1.8-24 4.8-42.1 26.1-42.1 51.5 0 0.2 0 0.4 0 0.7 7.1-3.9 15.2-6.3 23.8-6.6-14.1 9.4-23.4 25.5-23.4 43.7 0 9.6 2.6 18.6 7.1 26.4 25.9-31.8 64.6-52.7 108.3-54.9-0.9 3.8-1.4 7.9-1.4 12 0 29 23.5 52.5 52.5 52.5 15.1 0 28.8-6.4 38.3-16.6 12 2.4 23.2 6.7 33.4 12.7-3.9-12.3-12.2-22.6-23.1-29.1 10.6 1.3 20.7 4.1 30.2 8.3-7-10.5-15.9-19.8-26.2-27.2z" />
<glyph unicode="&#xe60e;" d="M256 480c-141.4 0-256-114.6-256-256s114.6-256 256-256 256 114.6 256 256-114.6 256-256 256zM357.8 276.2c0.1-2.3 0.2-4.5 0.2-6.8 0-69.4-52.8-149.4-149.4-149.4-29.7 0-57.3 8.7-80.5 23.6 4.1-0.5 8.3-0.7 12.5-0.7 24.6 0 47.3 8.4 65.2 22.5-23 0.4-42.4 15.6-49.1 36.5 3.2-0.6 6.5-0.9 9.9-0.9 4.8 0 9.4 0.6 13.8 1.8-24 4.8-42.1 26.1-42.1 51.5 0 0.2 0 0.4 0 0.7 7.1-3.9 15.2-6.3 23.8-6.6-14.1 9.4-23.4 25.5-23.4 43.7 0 9.6 2.6 18.6 7.1 26.4 25.9-31.8 64.6-52.7 108.3-54.9-0.9 3.8-1.4 7.9-1.4 12 0 29 23.5 52.5 52.5 52.5 15.1 0 28.8-6.4 38.3-16.6 12 2.4 23.2 6.7 33.4 12.7-3.9-12.3-12.2-22.6-23.1-29.1 10.6 1.3 20.7 4.1 30.2 8.3-7-10.5-15.9-19.8-26.2-27.2z" />
<glyph unicode="&#xe60f;" d="M370.8 80.6c-8.9-4.2-26-8-38.7-8.3-38.4-1-45.9 27-46.2 47.3v149.5h96.4v72.7h-96v122.2c0 0-69.2 0-70.3 0s-3.2-1-3.5-3.6c-4.1-37.4-21.6-103.1-94.4-129.3v-62h48.6v-156.8c0-53.7 39.6-130 144.2-128.2 35.3 0.6 74.5 15.4 83.1 28.1l-23.2 68.4z" />
<glyph unicode="&#xe610;" d="M432 480h-352c-44.2 0-80-35.8-80-80v-352c0-44.2 35.8-80 80-80h352c44.2 0 80 35.8 80 80v352c0 44.2-35.8 80-80 80zM283.4 104c-52.3-0.9-72.1 37.2-72.1 64.1v78.4h-24.3v31c36.4 13.1 45.2 46 47.2 64.7 0.1 1.3 1.2 1.8 1.7 1.8 0.6 0 35.2 0 35.2 0v-61.1h48v-36.3h-48.1v-74.7c0.2-10.2 3.9-24.2 23.1-23.7 6.4 0.2 14.9 2 19.4 4.1l11.5-34.2c-4.4-6.4-24-13.8-41.6-14.1z" />
<glyph unicode="&#xe611;" d="M256 480c-141.4 0-256-114.6-256-256s114.6-256 256-256 256 114.6 256 256-114.6 256-256 256zM283.4 104c-52.3-0.9-72.1 37.2-72.1 64.1v78.4h-24.3v31c36.4 13.1 45.2 46 47.2 64.7 0.1 1.3 1.2 1.8 1.7 1.8 0.6 0 35.2 0 35.2 0v-61.1h48v-36.3h-48.1v-74.7c0.2-10.2 3.9-24.2 23.1-23.7 6.4 0.2 14.9 2 19.4 4.1l11.5-34.2c-4.4-6.4-24-13.8-41.6-14.1z" />
<glyph unicode="&#xe612;" d="M256 480c-141.4 0-256-114.6-256-256 0-104.8 63-194.9 153.2-234.5-0.7 17.9-0.1 39.3 4.5 58.8 4.9 20.8 32.9 139.5 32.9 139.5s-8.2 16.3-8.2 40.5c0 37.9 22 66.3 49.4 66.3 23.3 0 34.5-17.5 34.5-38.4 0-23.4-14.9-58.4-22.6-90.8-6.4-27.2 13.6-49.3 40.4-49.3 48.5 0 81.2 62.3 81.2 136.1 0 56.1-37.8 98.1-106.5 98.1-77.7 0-126-57.9-126-122.6 0-22.3 6.6-38 16.9-50.2 4.7-5.6 5.4-7.8 3.7-14.3-1.2-4.7-4-16.1-5.2-20.5-1.7-6.5-7-8.8-12.8-6.4-35.8 14.6-52.4 53.8-52.4 97.8 0 72.7 61.3 159.9 183 159.9 97.7 0 162.1-70.7 162.1-146.6 0-100.4-55.8-175.4-138.1-175.4-27.6 0-53.6 14.9-62.5 31.9 0 0-14.9-59-18-70.4-5.4-19.7-16.1-39.5-25.8-54.8 23-6.8 47.3-10.5 72.6-10.5 141.4 0 256 114.6 256 256-0.3 141.2-114.9 255.8-256.3 255.8z" />
<glyph unicode="&#xe613;" d="M432 480h-352c-44.2 0-80-35.8-80-80v-352c0-44.2 35.8-80 80-80h352c44.2 0 80 35.8 80 80v352c0 44.2-35.8 80-80 80zM256 96c-12.6 0-24.8 1.9-36.3 5.2 4.9 7.7 10.2 17.6 12.9 27.4 1.6 5.7 9 35.2 9 35.2 4.5-8.5 17.5-16 31.3-16 41.1 0 69.1 37.5 69.1 87.7 0 38-32.2 73.3-81 73.3-60.8 0-91.5-43.6-91.5-80 0-22 8.3-41.6 26.2-48.9 2.9-1.2 5.6 0 6.4 3.2 0.6 2.2 2 7.9 2.6 10.3 0.9 3.2 0.5 4.3-1.8 7.1-5.2 6.1-8.4 14-8.4 25.1 0 32.3 24.2 61.3 63 61.3 34.4 0 53.3-21 53.3-49.1 0-36.9-16.3-68.1-40.6-68.1-13.4 0-23.4 11.1-20.2 24.7 3.8 16.2 11.3 33.7 11.3 45.4 0 10.5-5.6 19.2-17.3 19.2-13.7 0-24.7-14.2-24.7-33.1 0-12.1 4.1-20.3 4.1-20.3s-14-59.4-16.5-69.7c-2.3-9.7-2.6-20.5-2.2-29.4-45.2 20.1-76.7 65.1-76.7 117.5 0 70.7 57.3 128 128 128s128-57.3 128-128c0-70.7-57.3-128-128-128z" />
<glyph unicode="&#xe614;" d="M256 480c-141.4 0-256-114.6-256-256s114.6-256 256-256 256 114.6 256 256-114.6 256-256 256zM256 96c-12.6 0-24.8 1.9-36.3 5.2 4.9 7.7 10.2 17.6 12.9 27.4 1.6 5.7 9 35.2 9 35.2 4.5-8.5 17.5-16 31.3-16 41.1 0 69.1 37.5 69.1 87.7 0 38-32.2 73.3-81 73.3-60.8 0-91.5-43.6-91.5-80 0-22 8.3-41.6 26.2-48.9 2.9-1.2 5.6 0 6.4 3.2 0.6 2.2 2 7.9 2.6 10.3 0.9 3.2 0.5 4.3-1.8 7.1-5.2 6.1-8.4 14-8.4 25.1 0 32.3 24.2 61.3 63 61.3 34.4 0 53.3-21 53.3-49.1 0-36.9-16.3-68.1-40.6-68.1-13.4 0-23.4 11.1-20.2 24.7 3.8 16.2 11.3 33.7 11.3 45.4 0 10.5-5.6 19.2-17.3 19.2-13.7 0-24.7-14.2-24.7-33.1 0-12.1 4.1-20.3 4.1-20.3s-14-59.4-16.5-69.7c-2.3-9.7-2.6-20.5-2.2-29.4-45.2 20.1-76.7 65.1-76.7 117.5 0 70.7 57.3 128 128 128s128-57.3 128-128c0-70.7-57.3-128-128-128z" />
<glyph unicode="&#xe615;" d="M70.8 32.3h86.3v277.4h-86.3v-277.4zM114 447.7c-27.6 0-50-22.4-50-50s22.3-50 50-50c27.6 0 50 22.4 50 50-0.1 27.6-22.5 50-50 50zM376.6 316.7c-41.9 0-70.1-23-81.6-44.8h-1.2v37.9h-82.7v-277.4h86.2v137.2c0 36.2 6.8 71.2 51.7 71.2 44.2 0 44.8-41.4 44.8-73.6v-134.9h86.2v152.2c0 74.7-16.1 132.2-103.4 132.2z" />
<glyph unicode="&#xe616;" d="M432 480h-352c-44.2 0-80-35.8-80-80v-352c0-44.2 35.8-80 80-80h352c44.2 0 80 35.8 80 80v352c0 44.2-35.8 80-80 80zM206.5 128.2h-43.1v138.7h43.1v-138.7zM185 285.8c-13.8 0-25 11.2-25 25s11.2 25 25 25c13.8 0 25-11.2 25-25s-11.2-25-25-25zM368 128.2h-43.1v67.4c0 16.1-0.3 36.8-22.4 36.8-22.4 0-25.9-17.5-25.9-35.6v-68.6h-43.1v138.7h41.4v-18.9h0.6c5.8 10.9 19.8 22.4 40.8 22.4 43.6 0 51.7-28.7 51.7-66.1v-76.1z" />
<glyph unicode="&#xe617;" d="M256 480c-141.4 0-256-114.6-256-256s114.6-256 256-256 256 114.6 256 256-114.6 256-256 256zM206.5 128.2h-43.1v138.7h43.1v-138.7zM185 285.8c-13.8 0-25 11.2-25 25s11.2 25 25 25c13.8 0 25-11.2 25-25s-11.2-25-25-25zM368 128.2h-43.1v67.4c0 16.1-0.3 36.8-22.4 36.8-22.4 0-25.9-17.5-25.9-35.6v-68.6h-43.1v138.7h41.4v-18.9h0.6c5.8 10.9 19.8 22.4 40.8 22.4 43.6 0 51.7-28.7 51.7-66.1v-76.1z" />
<glyph unicode="&#xe618;" d="M440.6 260.9h-41.8c3-11.8 4.8-24.2 4.8-36.9 0-81.6-66.1-147.7-147.7-147.7s-147.7 66.1-147.7 147.7c0 12.8 1.8 25.1 4.9 36.9h-41.7v-203.1c0-10.2 8.3-18.4 18.5-18.4h332.3c10.2 0 18.5 8.3 18.5 18.4v203.1zM440.6 390.2c0 10.2-8.3 18.5-18.5 18.5h-55.4c-10.2 0-18.5-8.3-18.5-18.5v-55.4c0-10.2 8.3-18.5 18.5-18.5h55.4c10.2 0 18.5 8.3 18.5 18.5v55.4zM256 316.3c-51 0-92.3-41.3-92.3-92.3s41.3-92.3 92.3-92.3 92.3 41.3 92.3 92.3c0 51-41.3 92.3-92.3 92.3zM440.6-16h-369.2c-30.6 0-55.4 24.8-55.4 55.4v369.2c0 30.6 24.8 55.4 55.4 55.4h369.3c30.6 0 55.4-24.8 55.4-55.4v-369.2c-0.1-30.6-24.9-55.4-55.5-55.4z" />
<glyph unicode="&#xe619;" d="M256 177.8c25.5 0 46.2 20.7 46.2 46.2s-20.7 46.2-46.2 46.2c-25.5 0-46.2-20.7-46.2-46.2s20.7-46.2 46.2-46.2zM339.1 316.3h-27.7c-5.1 0-9.2-4.1-9.2-9.2v-27.7c0-5.1 4.1-9.2 9.2-9.2h27.7c5.1 0 9.2 4.1 9.2 9.2v27.7c0 5.1-4.1 9.2-9.2 9.2zM329.8 224c0-40.8-33.1-73.8-73.8-73.8-40.8 0-73.8 33.1-73.8 73.8 0 6.4 0.9 12.6 2.4 18.5h-20.9v-101.5c0-5.1 4.1-9.2 9.2-9.2h166.1c5.1 0 9.2 4.1 9.2 9.2v101.5h-20.9c1.6-5.9 2.5-12.1 2.5-18.5zM432 480h-352c-44.2 0-80-35.8-80-80v-352c0-44.2 35.8-80 80-80h352c44.2 0 80 35.8 80 80v352c0 44.2-35.8 80-80 80zM376 131.7c0-15.3-12.4-27.7-27.7-27.7h-184.6c-15.3 0-27.7 12.4-27.7 27.7v184.6c0 15.3 12.4 27.7 27.7 27.7h184.6c15.3 0 27.7-12.4 27.7-27.7v-184.6z" />
<glyph unicode="&#xe61a;" d="M339.1 316.3h-27.7c-5.1 0-9.2-4.1-9.2-9.2v-27.7c0-5.1 4.1-9.2 9.2-9.2h27.7c5.1 0 9.2 4.1 9.2 9.2v27.7c0 5.1-4.1 9.2-9.2 9.2zM256 480c-141.4 0-256-114.6-256-256s114.6-256 256-256 256 114.6 256 256-114.6 256-256 256zM376 131.7c0-15.3-12.4-27.7-27.7-27.7h-184.6c-15.3 0-27.7 12.4-27.7 27.7v184.6c0 15.3 12.4 27.7 27.7 27.7h184.6c15.3 0 27.7-12.4 27.7-27.7v-184.6zM329.8 224c0-40.8-33.1-73.8-73.8-73.8-40.8 0-73.8 33.1-73.8 73.8 0 6.4 0.9 12.6 2.4 18.5h-20.9v-101.5c0-5.1 4.1-9.2 9.2-9.2h166.1c5.1 0 9.2 4.1 9.2 9.2v101.5h-20.9c1.6-5.9 2.5-12.1 2.5-18.5zM256 177.8c25.5 0 46.2 20.7 46.2 46.2s-20.7 46.2-46.2 46.2c-25.5 0-46.2-20.7-46.2-46.2s20.7-46.2 46.2-46.2z" />
<glyph unicode="&#xe61b;" d="M310.8 464h-127.9c-17 0-35.2-2-54.6-6-19.6-4.6-38.5-14.4-56.7-29.4-26.5-25.7-39.7-54.3-39.7-85.8 0-26.1 9.3-49 28-68.6 17.9-21.1 43.8-31.8 77.9-32.3 6.4 0 13.3 0.4 20.6 1.3-1.2-3.4-2.5-7-3.9-11-1.6-3.8-2.4-8.5-2.4-14.2 0-9.5 2.1-17.5 6.3-24.3 3.6-6.9 7.7-13.4 12.3-19.5-14.9-0.4-33.7-2.3-56.3-5.6-22.8-4-44.6-11.9-65.3-23.8-18.4-11-31.2-23.9-38.2-38.5-7.3-14.6-10.9-27.8-10.9-39.7 0-24.4 11.2-45.3 33.5-62.9 22.1-18.7 55.5-28.3 100.3-28.7 53.5 0.8 94.5 13.7 122.9 38.5 27.4 24 41.1 51.6 41.1 82.7-0.4 21.9-5.4 39.7-15 53.3-10.2 13.4-22 25.6-35.5 36.7l-21.7 17.8c-3.1 3.1-6.4 6.8-9.7 11-3.9 4.4-5.9 9.9-5.9 16.6 0 6.9 1.9 12.9 5.7 18.2 3.2 5 6.8 9.5 10.6 13.5 6.7 5.8 13 11.6 18.9 17.2 5.3 5.6 10.4 11.8 15.2 18.5 9.7 13.8 14.8 32.2 15.2 55.1 0 12.5-1.4 23.5-4.2 32.9-3.4 9.4-7.3 17.5-11.7 24.4-4.6 7.3-9.3 13.5-14.2 18.5-5 4.8-9.5 8.5-13.6 11h39.4l39.5 23.1zM240.7 113.7c10.6-12.1 15.9-26.3 15.9-42.6 0-20.1-7.7-36.5-23.2-49.2-15.9-13-38.9-19.6-69-20.1-33.6 0.4-60.1 7.9-79.4 22.6-20.4 14.6-30.5 33.2-30.5 55.8 0 11.5 2.3 21.3 7 29.5 4.1 7.7 9.1 14.2 15 19.4 6.1 5 12.1 8.9 18 11.6 5.9 2.5 10.5 4.4 13.7 5.6 13.8 4.2 27.4 7.2 40.6 9.1 13.4 1.3 21.8 1.7 25.1 1.3 5.5 0 10.3-0.2 14.4-0.6 23.6-16.8 41.2-30.9 52.4-42.4zM219.9 302.7c-1.5-8.6-5-17-10.4-25.1-11.2-11.5-25.3-17.6-42.1-18.2-13.3 0-25.2 4.1-35.5 12.2-10.4 8.2-18.8 18.1-25.4 29.8-13.5 25.1-20.3 49.3-20.3 72.5-0.4 17.6 4.2 33.5 13.9 47.7 11.5 13.6 25.9 20.6 43.2 21 13.1-0.4 24.7-4.3 34.8-11.6 9.9-7.7 17.8-17.8 23.9-30.1 12.9-25.7 19.4-51.3 19.4-76.6-0.1-5.8-0.6-13-1.5-21.6zM443.1 263.8v68.9h-39.4v-68.9h-67.3v-39.4h67.3v-67.3h39.4v67.3h68.9v39.4h-68.9z" />
<glyph unicode="&#xe61c;" d="M217 327.6c-5 3.7-10.8 5.6-17.4 5.8-8.7-0.2-15.9-3.7-21.6-10.5-4.8-7.1-7.2-15.1-7-23.9 0-11.6 3.4-23.7 10.2-36.3 3.3-5.9 7.5-10.8 12.7-14.9s11.1-6.1 17.8-6.1c8.4 0.3 15.4 3.3 21 9.1 2.7 4.1 4.4 8.3 5.2 12.6 0.5 4.3 0.7 7.9 0.7 10.8 0 12.7-3.2 25.4-9.7 38.3-3 6.2-6.9 11.2-11.9 15.1zM214.9 190.3c-1.6 0.2-5.8 0-12.5-0.6-6.6-0.9-13.4-2.5-20.3-4.5-1.6-0.6-3.9-1.6-6.9-2.8-3-1.4-6-3.3-9-5.8-3-2.6-5.4-5.8-7.5-9.7-2.3-4.1-3.5-9-3.5-14.7 0-11.3 5.1-20.6 15.3-27.9 9.7-7.3 22.9-11.1 39.7-11.3 15.1 0.2 26.6 3.6 34.5 10 7.7 6.4 11.6 14.6 11.6 24.6 0 8.1-2.6 15.3-7.9 21.3-5.6 5.7-14.4 12.8-26.3 21.2-2.1 0.1-4.5 0.2-7.2 0.2zM432 480h-352c-44.2 0-80-35.8-80-80v-352c0-44.2 35.8-80 80-80h352c44.2 0 80 35.8 80 80v352c0 44.2-35.8 80-80 80zM250.7 326.9c2.4-2.5 4.8-5.6 7.1-9.2 2.2-3.4 4.2-7.5 5.9-12.2 1.4-4.7 2.1-10.2 2.1-16.4-0.2-11.5-2.7-20.7-7.6-27.6-2.4-3.3-4.9-6.4-7.6-9.2-3-2.8-6.1-5.7-9.4-8.6-1.9-2-3.7-4.2-5.3-6.7-1.9-2.6-2.9-5.6-2.9-9.1 0-3.3 1-6.1 2.9-8.3 1.7-2.1 3.3-3.9 4.8-5.5l10.8-8.9c6.7-5.5 12.7-11.6 17.7-18.3 4.8-6.8 7.3-15.7 7.5-26.6 0-15.6-6.8-29.3-20.5-41.4-14.2-12.4-34.7-18.9-61.4-19.3-22.4 0.2-39.1 5-50.2 14.4-11.1 8.8-16.7 19.2-16.7 31.4 0 5.9 1.8 12.6 5.4 19.9 3.5 7.3 9.9 13.7 19.1 19.2 10.4 5.9 21.2 9.9 32.6 11.9 11.3 1.7 20.7 2.6 28.1 2.8-2.3 3-4.4 6.3-6.2 9.8-2.1 3.4-3.2 7.4-3.2 12.1 0 2.8 0.4 5.2 1.2 7.1 0.7 2 1.4 3.8 2 5.5-3.6-0.4-7.1-0.6-10.3-0.6-17 0.2-30 5.6-38.9 16.1-9.3 9.8-14 21.2-14 34.3 0 15.8 6.6 30.1 19.9 42.9 9.1 7.5 18.5 12.4 28.3 14.7 9.7 2 18.8 3 27.3 3h64l-19.8-11.6h-19.7c2.2-1.3 4.5-3.2 7-5.6zM384 224.2h-34.5v-33.6h-19.7v33.6h-33.6v19.7h33.6v34.5h19.7v-34.5h34.5v-19.7z" />
<glyph unicode="&#xe61d;" d="M214.9 190.3c-1.6 0.2-5.8 0-12.5-0.6-6.6-0.9-13.4-2.5-20.3-4.5-1.6-0.6-3.9-1.6-6.9-2.8-3-1.4-6-3.3-9-5.8-3-2.6-5.4-5.8-7.5-9.7-2.3-4.1-3.5-9-3.5-14.7 0-11.3 5.1-20.6 15.3-27.9 9.7-7.3 22.9-11.1 39.7-11.3 15.1 0.2 26.6 3.6 34.5 10 7.7 6.4 11.6 14.6 11.6 24.6 0 8.1-2.6 15.3-7.9 21.3-5.6 5.7-14.4 12.8-26.3 21.2-2.1 0.1-4.5 0.2-7.2 0.2zM217 327.6c-5 3.7-10.8 5.6-17.4 5.8-8.7-0.2-15.9-3.7-21.6-10.5-4.8-7.1-7.2-15.1-7-23.9 0-11.6 3.4-23.7 10.2-36.3 3.3-5.9 7.5-10.8 12.7-14.9s11.1-6.1 17.8-6.1c8.4 0.3 15.4 3.3 21 9.1 2.7 4.1 4.4 8.3 5.2 12.6 0.5 4.3 0.7 7.9 0.7 10.8 0 12.7-3.2 25.4-9.7 38.3-3 6.2-6.9 11.2-11.9 15.1zM256 480c-141.4 0-256-114.6-256-256s114.6-256 256-256 256 114.6 256 256-114.6 256-256 256zM250.7 326.9c2.4-2.5 4.8-5.6 7.1-9.2 2.2-3.4 4.2-7.5 5.9-12.2 1.4-4.7 2.1-10.2 2.1-16.4-0.2-11.5-2.7-20.7-7.6-27.6-2.4-3.3-4.9-6.4-7.6-9.2-3-2.8-6.1-5.7-9.4-8.6-1.9-2-3.7-4.2-5.3-6.7-1.9-2.6-2.9-5.6-2.9-9.1 0-3.3 1-6.1 2.9-8.3 1.7-2.1 3.3-3.9 4.8-5.5l10.8-8.9c6.7-5.5 12.7-11.6 17.7-18.3 4.8-6.8 7.3-15.7 7.5-26.6 0-15.6-6.8-29.3-20.5-41.4-14.2-12.4-34.7-18.9-61.4-19.3-22.4 0.2-39.1 5-50.2 14.4-11.1 8.8-16.7 19.2-16.7 31.4 0 5.9 1.8 12.6 5.4 19.9 3.5 7.3 9.9 13.7 19.1 19.2 10.4 5.9 21.2 9.9 32.6 11.9 11.3 1.7 20.7 2.6 28.1 2.8-2.3 3-4.4 6.3-6.2 9.8-2.1 3.4-3.2 7.4-3.2 12.1 0 2.8 0.4 5.2 1.2 7.1 0.7 2 1.4 3.8 2 5.5-3.6-0.4-7.1-0.6-10.3-0.6-17 0.2-30 5.6-38.9 16.1-9.3 9.8-14 21.2-14 34.3 0 15.8 6.6 30.1 19.9 42.9 9.1 7.5 18.5 12.4 28.3 14.7 9.7 2 18.8 3 27.3 3h64l-19.8-11.6h-19.7c2.2-1.3 4.5-3.2 7-5.6zM384 224.2h-34.5v-33.6h-19.7v33.6h-33.6v19.7h33.6v34.5h19.7v-34.5h34.5v-19.7z" />
<glyph unicode="&#xe61e;" d="M407.8 464c0 0-228 0-264.5 0-36.6 0-47.3-27.5-47.3-44.7 0-17.3 0-420.3 0-420.3 0-19.5 10.5-26.7 16.3-29.1 5.9-2.4 22.1-4.4 31.8 6.8 0 0 124.9 144.9 127 147.1 3.2 3.2 3.2 3.2 6.5 3.2 6.5 0 54.6 0 80.8 0 34 0 39.4 24.2 43 38.5 3 11.9 36.1 181.5 47.1 235.3 8.6 41.1-1.9 63.2-40.7 63.2zM401.5 165.5c3 11.9 36.1 181.5 47.1 235.3zM392.2 392.4l-11.1-57.9c-1.3-6.3-9.2-12.8-16.5-12.8s-103.1 0-103.1 0c-11.6 0-19.9-7.9-19.9-19.5v-12.6c0-11.6 8.4-19.8 20-19.8 0 0 79.3 0 87.4 0 8.2 0 16.2-9 14.5-17.7-1.8-8.8-10.1-52.1-11.1-56.9s-6.5-13-16.2-13c-8.2 0-71.4 0-71.4 0-13 0-16.9-1.7-25.6-12.5s-86.9-104.7-86.9-104.7c-0.8-0.9-1.6-0.6-1.6 0.3v328c0 7.4 6.4 16.1 16.1 16.1 0 0 204 0 212.3 0 7.7-0.1 15-7.4 13.1-17z" />
<glyph unicode="&#xe61f;" d="M432 480h-352c-44.2 0-80-35.8-80-80v-352c0-44.2 35.8-80 80-80h352c44.2 0 80 35.8 80 80v352c0 44.2-35.8 80-80 80zM352.3 312.4l-8.3-41.5c-6.6-33.4-14.3-72.2-15.2-76.1-1.8-7.1-4.5-19.2-21.5-19.2h-40.4c-1.6 0-1.6 0-3.2-1.6-1.1-1.1-63.5-73.5-63.5-73.5-4.9-5.6-13-4.6-15.9-3.4s-8.2 4.8-8.2 14.5c0 0 0 201.5 0 210.2 0 8.6 5.4 22.4 23.6 22.4 18.3 0 132.3 0 132.3 0 19.3-0.2 24.5-11.3 20.3-31.8zM317.5 316.7c-4.1 0-106.1 0-106.1 0-4.8 0-8-4.3-8-8v-164c0-0.5 0.4-0.6 0.8-0.2 0 0 39.1 47 43.5 52.4 4.3 5.4 6.3 6.3 12.8 6.3 0 0 31.6 0 35.7 0 4.9 0 7.6 4.1 8.1 6.5s4.7 24.1 5.5 28.5c0.9 4.4-3.1 8.9-7.2 8.9s-43.7 0-43.7 0c-5.8 0-10 4.1-10 9.9v6.3c0 5.8 4.1 9.7 9.9 9.7 0 0 47.9 0 51.5 0 3.7 0 7.6 3.3 8.3 6.4l5.6 28.9c0.9 4.7-2.8 8.4-6.7 8.4z" />
<glyph unicode="&#xe620;" d="M317.5 316.7c-4.1 0-106.1 0-106.1 0-4.8 0-8-4.3-8-8v-164c0-0.5 0.4-0.6 0.8-0.2 0 0 39.1 47 43.5 52.4 4.3 5.4 6.3 6.3 12.8 6.3 0 0 31.6 0 35.7 0 4.9 0 7.6 4.1 8.1 6.5s4.7 24.1 5.5 28.5c0.9 4.4-3.1 8.9-7.2 8.9s-43.7 0-43.7 0c-5.8 0-10 4.1-10 9.9v6.3c0 5.8 4.1 9.7 9.9 9.7 0 0 47.9 0 51.5 0 3.7 0 7.6 3.3 8.3 6.4l5.6 28.9c0.9 4.7-2.8 8.4-6.7 8.4zM256 480c-141.4 0-256-114.6-256-256s114.6-256 256-256 256 114.6 256 256-114.6 256-256 256zM352.3 312.4l-8.3-41.5c-6.6-33.4-14.3-72.2-15.2-76.1-1.8-7.1-4.5-19.2-21.5-19.2h-40.4c-1.6 0-1.6 0-3.2-1.6-1.1-1.1-63.5-73.5-63.5-73.5-4.9-5.6-13-4.6-15.9-3.4s-8.2 4.8-8.2 14.5c0 0 0 201.5 0 210.2 0 8.6 5.4 22.4 23.6 22.4 18.3 0 132.3 0 132.3 0 19.3-0.2 24.5-11.3 20.3-31.8z" />
<glyph unicode="&#xe621;" d="M256 480c-141.4 0-256-114.6-256-256s114.6-256 256-256 256 114.6 256 256-114.6 256-256 256zM160 144c-44.2 0-80 35.8-80 80s35.8 80 80 80 80-35.8 80-80-35.8-80-80-80zM352 144c-44.2 0-80 35.8-80 80s35.8 80 80 80 80-35.8 80-80-35.8-80-80-80z" />
<glyph unicode="&#xe622;" d="M208 264c-22.1 0-40-17.9-40-40s17.9-40 40-40 40 17.9 40 40-17.9 40-40 40zM304 264c-22.1 0-40-17.9-40-40s17.9-40 40-40 40 17.9 40 40-17.9 40-40 40zM432 480h-352c-44.2 0-80-35.8-80-80v-352c0-44.2 35.8-80 80-80h352c44.2 0 80 35.8 80 80v352c0 44.2-35.8 80-80 80zM256 96c-70.7 0-128 57.3-128 128s57.3 128 128 128 128-57.3 128-128-57.3-128-128-128z" />
<glyph unicode="&#xe623;" d="M208 264c-22.1 0-40-17.9-40-40s17.9-40 40-40 40 17.9 40 40-17.9 40-40 40zM304 264c-22.1 0-40-17.9-40-40s17.9-40 40-40 40 17.9 40 40-17.9 40-40 40zM256 480c-141.4 0-256-114.6-256-256s114.6-256 256-256 256 114.6 256 256-114.6 256-256 256zM256 96c-70.7 0-128 57.3-128 128s57.3 128 128 128 128-57.3 128-128-57.3-128-128-128z" />
<glyph unicode="&#xe624;" d="M289.8-16v219h73.5l11 85.3h-84.5v54.5c0 24.7 6.9 41.5 42.3 41.5h45.2v76.3c-7.8 1-34.6 3.4-65.8 3.4-65.1 0-109.7-39.8-109.7-112.8v-62.9h-73.8v-85.3h73.7v-219h88.1z" />
<glyph unicode="&#xe625;" d="M432 480h-352c-44.2 0-80-35.8-80-80v-352c0-44.2 35.8-80 80-80h352c44.2 0 80 35.8 80 80v352c0 44.2-35.8 80-80 80zM316.6 304.2h-22.6c-17.7 0-21.1-8.4-21.1-20.8v-27.2h42.2l-5.5-42.7h-36.7v-109.5h-44.1v109.5h-36.8v42.7h36.8v31.5c0 36.5 22.3 56.4 54.9 56.4 15.6 0 29-1.2 32.9-1.7v-38.2z" />
<glyph unicode="&#xe626;" d="M256 480c-141.4 0-256-114.6-256-256s114.6-256 256-256 256 114.6 256 256-114.6 256-256 256zM316.6 304.2h-22.6c-17.7 0-21.1-8.4-21.1-20.8v-27.2h42.2l-5.5-42.7h-36.7v-109.5h-44.1v109.5h-36.8v42.7h36.8v31.5c0 36.5 22.3 56.4 54.9 56.4 15.6 0 29-1.2 32.9-1.7v-38.2z" />
<glyph unicode="&#xe627;" d="M430.4 295c-34 0-58.4-15.3-92.4-56.1-31.2 40.3-60.7 56.7-93 56.7-27.2 0-59-11.9-75.4-51-15.3 32.3-43.1 41.4-65.8 41.4-15.3 0-31.8-3.4-47.1-17.6l9.1 53.3h99.2v40.3h-134.4l-23.2-128.8v-4h43.6c10.2 15.9 23.8 19.3 36.3 19.3 19.8 0 37.4-10.2 41.4-38.6v-10.8c-2.8-26.1-21-40.8-41.4-40.8-17.6 0-36.3 9.6-38.6 35.7h-48.7v-10.8c0-4.5 7.4-23.2 8.5-25.5 20.4-33.5 54.4-39.7 80.5-39.7 29.5 0 61.8 11.3 81.6 51 17.6-38.6 48.2-49.3 76.5-49.3 32.9 0 56.1 14.2 91.3 53.3 31.2-36.9 59.5-53.3 91.3-53.3 53.9 0 82.2 41.4 82.2 89 0.1 47.2-28.8 86.3-81.5 86.3zM299.9 196.9c-6.8-6.2-15.3-13.6-22.7-18.1-11.3-6.8-21-10.2-31.2-10.2s-27.8 5.7-32.9 20.4c-1.1 4-2.8 9.6-2.8 10.8v13.6c4.5 23.2 17.6 33.5 34.6 33.5 1.7 0 9.6-0.6 14.2-2.3 5.7-2.3 11.9-5.1 17.6-9.1 6.2-4.5 31.8-24.9 31.8-28.9-0.1-1.8-5.7-6.9-8.6-9.7zM430.9 168.6c-21 0-42 13.6-62.9 37.4 22.1 24.4 39.7 40.8 61.2 40.8 23.8 0 37.4-18.1 37.4-39.7 0-21-12.4-38.5-35.7-38.5z" />
<glyph unicode="&#xe628;" d="M432 480h-352c-44.2 0-80-35.8-80-80v-352c0-44.2 35.8-80 80-80h352c44.2 0 80 35.8 80 80v352c0 44.2-35.8 80-80 80zM342.9 171.9c-15.9 0-30.1 8.2-45.6 26.6-17.6-19.6-29.2-26.6-45.6-26.6-14.2 0-29.5 5.4-38.3 24.7-9.9-19.8-26.1-25.5-40.8-25.5-13 0-30.1 3.1-40.3 19.8-0.6 1.1-4.3 10.5-4.3 12.8v5.3h24.4c1.1-13 10.5-17.9 19.3-17.9 10.2 0 19.3 7.4 20.7 20.4v5.5c-2 14.2-10.8 19.3-20.7 19.3-6.2 0-13-1.7-18.1-9.6h-21.8v2l11.6 64.4h67.2v-20.1h-49.6l-4.5-26.6c7.7 7.1 15.9 8.8 23.5 8.8 11.3 0 25.2-4.5 32.9-20.7 8.2 19.6 24.1 25.5 37.7 25.5 16.2 0 30.9-8.2 46.5-28.4 17 20.4 29.2 28.1 46.2 28.1 26.4 0 40.8-19.6 40.8-43.1-0.1-24-14.3-44.7-41.2-44.7zM342.6 235.4c-10.8 0-19.6-8.2-30.6-20.4 10.5-11.9 21-18.7 31.5-18.7 11.6 0 17.9 8.8 17.9 19.3-0.1 10.7-6.9 19.8-18.8 19.8zM266.3 229.7c-2.8 2-6 3.4-8.8 4.5-2.3 0.9-6.2 1.1-7.1 1.1-8.5 0-15-5.1-17.3-16.7v-6.8c0-0.6 0.9-3.4 1.4-5.4 2.6-7.4 11.3-10.2 16.4-10.2s9.9 1.7 15.6 5.1c3.7 2.3 7.9 6 11.3 9.1 1.4 1.4 4.3 4 4.3 4.8 0.1 2.1-12.6 12.3-15.8 14.5z" />
<glyph unicode="&#xe629;" d="M342.6 235.4c-10.8 0-19.6-8.2-30.6-20.4 10.5-11.9 21-18.7 31.5-18.7 11.6 0 17.9 8.8 17.9 19.3-0.1 10.7-6.9 19.8-18.8 19.8zM266.3 229.7c-2.8 2-6 3.4-8.8 4.5-2.3 0.9-6.2 1.1-7.1 1.1-8.5 0-15-5.1-17.3-16.7v-6.8c0-0.6 0.9-3.4 1.4-5.4 2.6-7.4 11.3-10.2 16.4-10.2s9.9 1.7 15.6 5.1c3.7 2.3 7.9 6 11.3 9.1 1.4 1.4 4.3 4 4.3 4.8 0.1 2.1-12.6 12.3-15.8 14.5zM256 480c-141.4 0-256-114.6-256-256s114.6-256 256-256 256 114.6 256 256-114.6 256-256 256zM342.9 171.9c-15.9 0-30.1 8.2-45.6 26.6-17.6-19.6-29.2-26.6-45.6-26.6-14.2 0-29.5 5.4-38.3 24.7-9.9-19.8-26.1-25.5-40.8-25.5-13 0-30.1 3.1-40.3 19.8-0.6 1.1-4.3 10.5-4.3 12.8v5.3h24.4c1.1-13 10.5-17.9 19.3-17.9 10.2 0 19.3 7.4 20.7 20.4v5.5c-2 14.2-10.8 19.3-20.7 19.3-6.2 0-13-1.7-18.1-9.6h-21.8v2l11.6 64.4h67.2v-20.1h-49.6l-4.5-26.6c7.7 7.1 15.9 8.8 23.5 8.8 11.3 0 25.2-4.5 32.9-20.7 8.2 19.6 24.1 25.5 37.7 25.5 16.2 0 30.9-8.2 46.5-28.4 17 20.4 29.2 28.1 46.2 28.1 26.4 0 40.8-19.6 40.8-43.1-0.1-24-14.3-44.7-41.2-44.7z" />
<glyph unicode="&#xe62a;" d="M16 384v-320h480v320h-480zM402 336l-146-113.6-146 113.6h292zM64 112v198.9l192-149.3 192 149.3v-198.9h-384z" />
<glyph unicode="&#xe62b;" d="M352 267.5l-96-74.7-96 74.7v-99.5h192v99.5zM329 280h-146l73-56.8 73 56.8zM432 480h-352c-44.2 0-80-35.8-80-80v-352c0-44.2 35.8-80 80-80h352c44.2 0 80 35.8 80 80v352c0 44.2-35.8 80-80 80zM376 144h-240v160h240v-160z" />
<glyph unicode="&#xe62c;" d="M352 267.5l-96-74.7-96 74.7v-99.5h192v99.5zM329 280h-146l73-56.8 73 56.8zM256 480c-141.4 0-256-114.6-256-256s114.6-256 256-256 256 114.6 256 256-114.6 256-256 256zM376 144h-240v160h240v-160z" />
<glyph unicode="&#xe62d;" d="M256 480c-141.4 0-256-114.6-256-256 0-113.1 73.3-209 175.1-242.9 12.8-2.3 17.5 5.6 17.5 12.3 0 6.1-0.2 22.2-0.3 43.5-71.3-15.4-86.3 34.4-86.3 34.4-11.6 29.6-28.4 37.4-28.4 37.4-23.2 15.9 1.8 15.6 1.8 15.6 25.7-1.8 39.2-26.4 39.2-26.4 22.8-39.1 59.9-27.8 74.5-21.3 2.3 16.5 8.9 27.8 16.3 34.2-56.8 6.5-116.6 28.4-116.6 126.5 0 27.9 10 50.8 26.4 68.7-2.6 6.5-11.4 32.5 2.5 67.7 0 0 21.5 6.9 70.4-26.2 20.4 5.7 42.3 8.5 64.1 8.6 21.7-0.1 43.6-2.9 64.1-8.6 48.9 33.1 70.3 26.2 70.3 26.2 14-35.2 5.2-61.3 2.5-67.7 16.4-17.9 26.3-40.7 26.3-68.7 0-98.3-59.9-120-116.9-126.3 9.2-7.9 17.4-23.5 17.4-47.4 0-34.2-0.3-61.8-0.3-70.2 0-6.8 4.6-14.8 17.6-12.3 101.5 33.9 174.8 129.8 174.8 242.9 0 141.4-114.6 256-256 256z" />
<glyph unicode="&#xe62e;" d="M432 480h-352c-44.2 0-80-35.8-80-80v-352c0-44.2 35.8-80 80-80h352c44.2 0 80 35.8 80 80v352c0 44.2-35.8 80-80 80zM296.5 102.6c-6.5-1.3-8.8 2.7-8.8 6.2 0 4.2 0.2 18 0.2 35.1 0 11.9-4.1 19.8-8.7 23.7 28.5 3.2 58.4 14 58.4 63.2 0 14-5 25.4-13.2 34.3 1.3 3.2 5.7 16.3-1.3 33.9 0 0-10.7 3.4-35.2-13.1-10.2 2.8-21.2 4.3-32 4.3-10.9 0-21.8-1.5-32-4.3-24.5 16.6-35.2 13.1-35.2 13.1-7-17.6-2.6-30.6-1.3-33.9-8.2-8.9-13.2-20.4-13.2-34.3 0-49 29.9-60 58.3-63.3-3.7-3.2-7-8.8-8.1-17.1-7.3-3.3-25.8-8.9-37.3 10.6 0 0-6.8 12.3-19.6 13.2 0 0-12.5 0.2-0.9-7.8 0 0 8.4-3.9 14.2-18.7 0 0 7.5-24.9 43.1-17.2 0.1-10.7 0.2-18.7 0.2-21.8 0-3.4-2.3-7.3-8.7-6.2-50.7 17-87.4 64.9-87.4 121.5 0 70.7 57.3 128 128 128s128-57.3 128-128c0-56.5-36.6-104.5-87.5-121.4z" />
<glyph unicode="&#xe62f;" d="M256 480c-141.4 0-256-114.6-256-256s114.6-256 256-256 256 114.6 256 256-114.6 256-256 256zM296.5 102.6c-6.5-1.3-8.8 2.7-8.8 6.2 0 4.2 0.2 18 0.2 35.1 0 11.9-4.1 19.8-8.7 23.7 28.5 3.2 58.4 14 58.4 63.2 0 14-5 25.4-13.2 34.3 1.3 3.2 5.7 16.3-1.3 33.9 0 0-10.7 3.4-35.2-13.1-10.2 2.8-21.2 4.3-32 4.3-10.9 0-21.8-1.5-32-4.3-24.5 16.6-35.2 13.1-35.2 13.1-7-17.6-2.6-30.6-1.3-33.9-8.2-8.9-13.2-20.4-13.2-34.3 0-49 29.9-60 58.3-63.3-3.7-3.2-7-8.8-8.1-17.1-7.3-3.3-25.8-8.9-37.3 10.6 0 0-6.8 12.3-19.6 13.2 0 0-12.5 0.2-0.9-7.8 0 0 8.4-3.9 14.2-18.7 0 0 7.5-24.9 43.1-17.2 0.1-10.7 0.2-18.7 0.2-21.8 0-3.4-2.3-7.3-8.7-6.2-50.7 17-87.4 64.9-87.4 121.5 0 70.7 57.3 128 128 128s128-57.3 128-128c0-56.5-36.6-104.5-87.5-121.4z" />
<glyph unicode="&#xe630;" d="M128 160c-35.3 0-64-28.7-64-64s28.7-64 64-64 64 28.7 64 64c0 35.3-28.7 64-64 64zM112 448c-17.7 0-32-14.3-32-32s14.3-32 32-32c167.6 0 304-136.4 304-304 0-17.7 14.3-32 32-32s32 14.3 32 32c0 202.9-165.1 368-368 368zM112 304c-17.7 0-32-14.3-32-32s14.3-32 32-32c88.2 0 160-71.8 160-160 0-17.7 14.3-32 32-32s32 14.3 32 32c0 123.5-100.5 224-224 224z" />
<glyph unicode="&#xe631;" d="M432 480h-352c-44.2 0-80-35.8-80-80v-352c0-44.2 35.8-80 80-80h352c44.2 0 80 35.8 80 80v352c0 44.2-35.8 80-80 80zM192 128c-17.7 0-32 14.3-32 32s14.3 32 32 32 32-14.3 32-32c0-17.7-14.3-32-32-32zM280 136c-8.8 0-16 7.2-16 16 0 44.1-35.9 80-80 80-8.8 0-16 7.2-16 16s7.2 16 16 16c61.8 0 112-50.2 112-112 0-8.8-7.2-16-16-16zM352 136c-8.8 0-16 7.2-16 16 0 83.8-68.2 152-152 152-8.8 0-16 7.2-16 16s7.2 16 16 16c101.5 0 184-82.5 184-184 0-8.8-7.2-16-16-16z" />
<glyph unicode="&#xe632;" d="M256 480c-141.4 0-256-114.6-256-256s114.6-256 256-256 256 114.6 256 256-114.6 256-256 256zM192 128c-17.7 0-32 14.3-32 32s14.3 32 32 32 32-14.3 32-32c0-17.7-14.3-32-32-32zM280 136c-8.8 0-16 7.2-16 16 0 44.1-35.9 80-80 80-8.8 0-16 7.2-16 16s7.2 16 16 16c61.8 0 112-50.2 112-112 0-8.8-7.2-16-16-16zM352 136c-8.8 0-16 7.2-16 16 0 83.8-68.2 152-152 152-8.8 0-16 7.2-16 16s7.2 16 16 16c101.5 0 184-82.5 184-184 0-8.8-7.2-16-16-16z" />
<glyph unicode="&#xe633;" d="M256 480c-141.4 0-256-114.6-256-256s114.6-256 256-256c141.4 0 256 114.6 256 256s-114.6 256-256 256zM373.4 110.8c-4.6-7.5-14.4-9.9-21.9-5.3-60.1 36.7-135.8 45-224.9 24.7-8.6-2-17.1 3.4-19.1 12s3.4 17.1 12 19.1c97.5 22.3 181.2 12.7 248.6-28.5 7.5-4.7 9.9-14.5 5.3-22zM404.7 180.5c-5.8-9.4-18.1-12.3-27.5-6.6-68.8 42.3-173.7 54.5-255.1 29.8-10.6-3.2-21.7 2.8-24.9 13.3-3.2 10.6 2.8 21.7 13.3 24.9 93 28.2 208.6 14.5 287.6-34 9.4-5.8 12.4-18.1 6.6-27.4zM407.4 253.1c-82.5 49-218.6 53.5-297.4 29.6-12.6-3.8-26 3.3-29.9 16-3.8 12.7 3.3 26 16 29.9 90.4 27.5 240.8 22.1 335.8-34.2 11.4-6.8 15.1-21.4 8.4-32.8-6.8-11.6-21.5-15.3-32.9-8.5z" />
<glyph unicode="&#xe634;" d="M343.9 259.1c-47.5 28.2-122.7 30.8-167.9 17.1-6.3-1.9-9.9-8.6-8-14.9s8.6-9.9 14.9-8c39.4 12 107.4 9.7 148.7-14.8 5.7-3.4 13-1.5 16.4 4.2 3.5 5.7 1.6 13-4.1 16.4zM327.1 216c-39.5 24.3-97.3 31.1-143.8 17-5.3-1.6-8.2-7.2-6.7-12.4 1.6-5.3 7.2-8.2 12.5-6.6 40.7 12.4 93.1 6.2 127.5-14.9 4.7-2.9 10.8-1.4 13.7 3.3 2.9 4.5 1.5 10.7-3.2 13.6zM312.1 178.4c-33.7 20.6-75.6 25.4-124.3 14.3-4.3-1-7-5.3-6-9.6s5.3-7 9.6-6c44.6 10.2 82.4 6 112.4-12.3 3.8-2.3 8.7-1.1 11 2.7 2.2 3.6 1 8.6-2.7 10.9zM432 480h-352c-44.2 0-80-35.8-80-80v-352c0-44.2 35.8-80 80-80h352c44.2 0 80 35.8 80 80v352c0 44.2-35.8 80-80 80zM256 96c-70.7 0-128 57.3-128 128s57.3 128 128 128c70.7 0 128-57.3 128-128s-57.3-128-128-128z" />
<glyph unicode="&#xe635;" d="M327.1 216c-39.5 24.3-97.3 31.1-143.8 17-5.3-1.6-8.2-7.2-6.7-12.4 1.6-5.3 7.2-8.2 12.5-6.6 40.7 12.4 93.1 6.2 127.5-14.9 4.7-2.9 10.8-1.4 13.7 3.3 2.9 4.5 1.5 10.7-3.2 13.6zM343.9 259.1c-47.5 28.2-122.7 30.8-167.9 17.1-6.3-1.9-9.9-8.6-8-14.9s8.6-9.9 14.9-8c39.4 12 107.4 9.7 148.7-14.8 5.7-3.4 13-1.5 16.4 4.2 3.5 5.7 1.6 13-4.1 16.4zM312.1 178.4c-33.7 20.6-75.6 25.4-124.3 14.3-4.3-1-7-5.3-6-9.6s5.3-7 9.6-6c44.6 10.2 82.4 6 112.4-12.3 3.8-2.3 8.7-1.1 11 2.7 2.2 3.6 1 8.6-2.7 10.9zM256 480c-141.4 0-256-114.6-256-256s114.6-256 256-256 256 114.6 256 256-114.6 256-256 256zM256 96c-70.7 0-128 57.3-128 128s57.3 128 128 128c70.7 0 128-57.3 128-128s-57.3-128-128-128z" />
<glyph unicode="&#xe636;" d="M441.8 256.4c-9.6 0-18.8-1.9-27.1-5.4-5.6 63.2-58.6 112.8-123.3 112.8-15.8 0-31.3-3.1-44.9-8.4-5.3-2.1-6.7-4.2-6.8-8.2v-222.7c0.1-4.3 3.4-7.6 7.6-8.1 0.2 0 194.5 0 194.5 0 38.7 0 70.2 31.1 70.2 69.8 0 38.8-31.4 70.2-70.2 70.2zM178.6 334.6c-11 0-19.8-8.1-19.8-18v-180.6c0-11 8.9-19.8 19.8-19.8 11 0 19.8 8.9 19.8 19.8v180.5c0 10-8.8 18.1-19.8 18.1zM99.2 290.7c-11 0-19.8-8.1-19.8-18v-136.7c0-11 8.9-19.8 19.8-19.8s19.8 8.9 19.8 19.8v136.7c0.1 9.9-8.8 18-19.8 18zM19.8 252.2c-11 0-19.8-8.1-19.8-18v-78.3c0-11 8.9-19.8 19.8-19.8 11 0 19.8 8.9 19.8 19.8v78.3c0.1 9.9-8.8 18-19.8 18z" />
<glyph unicode="&#xe637;" d="M432 480h-352c-44.2 0-80-35.8-80-80v-352c0-44.2 35.8-80 80-80h352c44.2 0 80 35.8 80 80v352c0 44.2-35.8 80-80 80zM147.8 189.9c0-5.5-4.4-9.9-9.9-9.9s-9.9 4.4-9.9 9.9v39.1c0 5 4.4 9 9.9 9s9.9-4 9.9-9v-39.1zM187.5 180c0-5.5-4.4-9.9-9.9-9.9s-9.9 4.4-9.9 9.9v68.3c0 5 4.4 9 9.9 9s9.9-4 9.9-9v-68.3zM227.2 180c0-5.5-4.4-9.9-9.9-9.9s-9.9 4.4-9.9 9.9v90.3c0 5 4.4 9 9.9 9s9.9-4 9.9-9v-90.3zM348.9 170.2c0 0-97.2 0-97.2 0-2.1 0.2-3.8 1.9-3.8 4v111.4c0 2 0.7 3.1 3.4 4.1 6.8 2.6 14.5 4.2 22.4 4.2 32.3 0 58.9-24.8 61.6-56.4 4.2 1.7 8.8 2.7 13.6 2.7 19.4 0 35.1-15.7 35.1-35.1 0-19.3-15.7-34.9-35.1-34.9z" />
<glyph unicode="&#xe638;" d="M256 480c-141.4 0-256-114.6-256-256s114.6-256 256-256 256 114.6 256 256-114.6 256-256 256zM147.8 189.9c0-5.5-4.4-9.9-9.9-9.9s-9.9 4.4-9.9 9.9v39.1c0 5 4.4 9 9.9 9s9.9-4 9.9-9v-39.1zM187.5 180c0-5.5-4.4-9.9-9.9-9.9s-9.9 4.4-9.9 9.9v68.3c0 5 4.4 9 9.9 9s9.9-4 9.9-9v-68.3zM227.2 180c0-5.5-4.4-9.9-9.9-9.9s-9.9 4.4-9.9 9.9v90.3c0 5 4.4 9 9.9 9s9.9-4 9.9-9v-90.3zM348.9 170.2c0 0-97.2 0-97.2 0-2.1 0.2-3.8 1.9-3.8 4v111.4c0 2 0.7 3.1 3.4 4.1 6.8 2.6 14.5 4.2 22.4 4.2 32.3 0 58.9-24.8 61.6-56.4 4.2 1.7 8.8 2.7 13.6 2.7 19.4 0 35.1-15.7 35.1-35.1 0-19.3-15.7-34.9-35.1-34.9z" />
<glyph unicode="&#xe639;" d="M402.3 464c-1.5 0-3-0.2-4.4-0.4l-235.3-47.3c-10.1-2-17.7-11-17.7-21.7v-281.1c0-12.2-9.9-22.1-22.1-22.1h-45.4c-29.7 0-53.7-24.1-53.7-53.7s24-53.7 53.7-53.7h31.6c35.6 0 64.5 28.9 64.5 64.5v249.6c0 6.9 4.9 12.7 11.5 14l193.7 38.9c0.9 0.2 1.7 0.2 2.7 0.2 7.9 0 14.3-6.4 14.3-14.3v-175.6c0-12.2-9.9-22.1-22.1-22.1h-45.4c-29.7 0-53.7-24.1-53.7-53.7 0-29.7 24.1-53.7 53.7-53.7h31.6c35.6 0 64.5 28.9 64.5 64.5v345.6c0 12.2-9.8 22.1-22 22.1z" />
<glyph unicode="&#xe63a;" d="M432 480h-352c-44.2 0-80-35.8-80-80v-352c0-44.2 35.8-80 80-80h352c44.2 0 80 35.8 80 80v352c0 44.2-35.8 80-80 80zM340.2 160.1c0-17.8-14.4-32.2-32.2-32.2h-15.8c-14.8 0-26.9 12-26.9 26.9s12 26.9 26.9 26.9h22.7c6.1 0 11 4.9 11 11v87.8c0 4-3.2 7.2-7.2 7.2-0.5 0-0.9 0-1.3-0.1l-96.9-19.5c-3.3-0.7-5.7-3.6-5.7-7v-124.8c0-17.8-14.4-32.2-32.2-32.2h-15.8c-14.8 0-26.9 12-26.9 26.9 0 14.8 12 26.9 26.9 26.9h22.7c6.1 0 11 4.9 11 11v140.4c0 5.3 3.8 9.8 8.8 10.8l117.6 23.6c0.7 0.1 1.4 0.2 2.2 0.2 6.1 0 11-4.9 11-11v-172.8z" />
<glyph unicode="&#xe63b;" d="M256 480c-141.4 0-256-114.6-256-256s114.6-256 256-256 256 114.6 256 256-114.6 256-256 256zM340.2 160.1c0-17.8-14.4-32.2-32.2-32.2h-15.8c-14.8 0-26.9 12-26.9 26.9s12 26.9 26.9 26.9h22.7c6.1 0 11 4.9 11 11v87.8c0 4-3.2 7.2-7.2 7.2-0.5 0-0.9 0-1.3-0.1l-96.9-19.5c-3.3-0.7-5.7-3.6-5.7-7v-124.8c0-17.8-14.4-32.2-32.2-32.2h-15.8c-14.8 0-26.9 12-26.9 26.9 0 14.8 12 26.9 26.9 26.9h22.7c6.1 0 11 4.9 11 11v140.4c0 5.3 3.8 9.8 8.8 10.8l117.6 23.6c0.7 0.1 1.4 0.2 2.2 0.2 6.1 0 11-4.9 11-11v-172.8z" />
<glyph unicode="&#xe63c;" d="M135.1 6l256.4 141-57.7 57.7-198.7-198.7zM99.2 439.3c-2-3.9-3.2-8.6-3.2-14.4v-401.2c0-5.6 1.2-10.2 3-14l214.9 214.9-214.7 214.7zM497.8 243.3l-80.9 44.5-63.2-63.2 63.5-63.5 80.6 44.3c18.9 10.4 18.9 27.4 0 37.9zM391.2 301.9l-255 140.1 197.6-197.6 57.4 57.5z" />
<glyph unicode="&#xe63d;" d="M432 480h-352c-44.2 0-80-35.8-80-80v-352c0-44.2 35.8-80 80-80h352c44.2 0 80 35.8 80 80v352c0 44.2-35.8 80-80 80zM323.6 262.9l-28.7-28.7-98.8 98.8 127.5-70.1zM176 123.9v200.5c0 2.9 0.6 5.3 1.6 7.2l107.4-107.3-107.5-107.5c-0.9 1.9-1.5 4.2-1.5 7.1zM195.6 115l99.3 99.4 28.9-28.9-128.2-70.5zM376.9 214.7l-40.3-22.1-31.8 31.8 31.6 31.6 40.5-22.2c9.5-5.4 9.5-13.9 0-19.1z" />
<glyph unicode="&#xe63e;" d="M256 480c-141.4 0-256-114.6-256-256s114.6-256 256-256 256 114.6 256 256-114.6 256-256 256zM323.6 262.9l-28.7-28.7-98.8 98.8 127.5-70.1zM176 123.9v200.5c0 2.9 0.6 5.3 1.6 7.2l107.4-107.3-107.5-107.5c-0.9 1.9-1.5 4.2-1.5 7.1zM195.6 115l99.3 99.4 28.9-28.9-128.2-70.5zM376.9 214.7l-40.3-22.1-31.8 31.8 31.6 31.6 40.5-22.2c9.5-5.4 9.5-13.9 0-19.1z" />
<glyph unicode="&#xe63f;" d="M150.6 462.1l-150.6-98.3 104.1-83.4 151.9 93.8-105.4 87.9zM0 197l150.6-98.3 105.4 88-151.9 93.8-104.1-83.5zM256 186.6l105.4-88 150.6 98.4-104.1 83.4-151.9-93.8zM512 363.8l-150.6 98.3-105.4-88 151.9-93.8 104.1 83.5zM256.3 167.7l-105.7-87.7-45.2 29.5v-33.1l150.9-90.5 150.9 90.5v33.1l-45.2-29.5-105.7 87.7z" />
<glyph unicode="&#xe640;" d="M180.1 252.2l75.9-46.9 75.9 46.9-75.9 46.9-75.9-46.9zM432 480h-352c-44.2 0-80-35.8-80-80v-352c0-44.2 35.8-80 80-80h352c44.2 0 80 35.8 80 80v352c0 44.2-35.8 80-80 80zM331.6 150.2l-75.5-45.3-75.5 45.3v16.5l22.6-14.8 52.8 43.8 53-43.7 22.6 14.8v-16.6zM384 210.5l-75.3-49.2-52.7 44-52.7-44-75.3 49.2 52.1 41.7-52.1 41.7 75.3 49.2 52.7-44 52.7 44 75.3-49.2-52.1-41.7 52.1-41.7z" />
<glyph unicode="&#xe641;" d="M180.1 252.2l75.9-46.9 75.9 46.9-75.9 46.9-75.9-46.9zM256 480c-141.4 0-256-114.6-256-256s114.6-256 256-256 256 114.6 256 256-114.6 256-256 256zM331.6 150.2l-75.5-45.3-75.5 45.3v16.5l22.6-14.8 52.8 43.8 53-43.7 22.6 14.8v-16.6zM384 210.5l-75.3-49.2-52.7 44-52.7-44-75.3 49.2 52.1 41.7-52.1 41.7 75.3 49.2 52.7-44 52.7 44 75.3-49.2-52.1-41.7 52.1-41.7z" />
<glyph unicode="&#xe642;" d="M157.4 107.5h215v-17.9h-233v358.4h-89.5v-448h412.2v197.1h-304.7v-89.6zM247 340.5h-89.6v-125.5h89.6v125.5zM354.6 340.5h-89.6v-125.5h89.6v125.5zM372.5 448v-233h89.6v233h-89.6z" />
<glyph unicode="&#xe643;" d="M432 480h-352c-44.2 0-80-35.8-80-80v-352c0-44.2 35.8-80 80-80h352c44.2 0 80 35.8 80 80v352c0 44.2-35.8 80-80 80zM260.5 282.2h44.8v-62.7h-44.8v62.7zM206.7 282.2h44.8v-62.7h-44.8v62.7zM359 112h-206v224h44.8v-179.2h116.5v9h-107.6v44.8h152.3v-98.6zM359 219.5h-44.8v116.5h44.8v-116.5z" />
<glyph unicode="&#xe644;" d="M256 480c-141.4 0-256-114.6-256-256s114.6-256 256-256 256 114.6 256 256-114.6 256-256 256zM260.5 282.2h44.8v-62.7h-44.8v62.7zM206.7 282.2h44.8v-62.7h-44.8v62.7zM359 112h-206v224h44.8v-179.2h116.5v9h-107.6v44.8h152.3v-98.6zM359 219.5h-44.8v116.5h44.8v-116.5z" />
<glyph unicode="&#xe645;" d="M209.3 239.8c13.3 6.3 23.3 14.4 30.1 24.3 6.7 9.9 10.1 22.3 10.1 37.2 0 13.7-2.3 25.4-6.8 34.6-4.6 9.4-11 16.9-19.3 22.5-8.4 5.6-18.2 9.7-29.8 12.2s-24.4 3.7-38.5 3.7h-139.1v-295.2h143.1c13.2 0 26.1 1.7 38.6 5 12.6 3.3 23.8 8.4 33.6 15.3 9.7 6.9 17.6 15.8 23.4 26.7 5.7 10.8 8.6 23.7 8.6 38.7 0 18.5-4.4 34.2-13.4 47.4-8.9 13.1-22.4 22.3-40.6 27.6zM81 324.1h60.8c5.7 0 11.4-0.4 16.7-1.5 5.5-0.9 10.1-2.7 14.3-5.2 4.2-2.4 7.5-5.9 10-10.3 2.4-4.4 3.6-10.1 3.6-16.9 0-12.4-3.6-21.4-11.1-26.8-7.6-5.6-17.1-8.3-28.6-8.3h-65.7v69zM194.5 149.3c-2.6-5-6.2-8.9-10.6-11.8-4.3-3-9.5-5-15.3-6.3-5.7-1.3-11.8-1.9-18.2-1.9h-69.4v81.3h70.7c14 0 25.4-3.2 33.9-9.7 8.5-6.6 12.8-17.4 12.8-32.6 0-7.6-1.3-14-3.9-19zM491.5 219.5c-3.9 15.2-10.1 28.7-18.8 40.6s-19.8 21.3-33.3 28.3c-13.6 7.1-29.4 10.6-47.5 10.6-16.4 0-31.2-2.9-44.6-8.7s-24.9-13.8-34.6-23.8c-9.7-10-17.1-22-22.4-35.8-5.2-13.8-7.9-28.7-7.9-44.7 0-16.5 2.6-31.8 7.7-45.6 5.2-13.9 12.4-25.7 21.7-35.6 9.6-9.9 20.9-17.5 34.5-23 13.6-5.4 28.8-8.1 45.6-8.1 24.2 0 44.9 5.5 61.9 16.6 17.2 11.1 29.8 29.4 38.1 55.2h-51.7c-2-6.6-7.2-13-15.7-18.9-8.6-6-18.8-9-30.7-9-16.5 0-29.2 4.3-38 12.9s-14.5 24.6-14.5 41.5h154.3c1.1 16.5-0.2 32.3-4.1 47.5zM341.4 208.9c0.3 4.2 1.2 8.9 2.7 14.1 1.5 5.3 4.1 10.3 7.9 15.1 3.8 4.7 8.8 8.6 14.9 11.8 6.2 3.2 14 4.8 23.4 4.8 14.4 0 26.2-4.2 33.2-11.9 7-7.8 12.1-18.9 13.5-33.8h-95.6zM449 354.6h-119.7v-29.1h119.7v29.1z" />
<glyph unicode="&#xe646;" d="M323.1 239.3c-4.7 0-8.6-0.8-11.7-2.4-3-1.6-5.5-3.6-7.4-5.9-1.9-2.4-3.2-4.9-3.9-7.5-0.8-2.6-1.2-5-1.3-7h47.8c-0.7 7.5-3.3 13-6.8 16.9-3.6 3.8-9.5 5.9-16.7 5.9zM215.7 243.7c3.7 2.7 5.6 7.2 5.6 13.4 0 3.4-0.6 6.3-1.8 8.5-1.3 2.2-2.9 3.9-5 5.1-2.1 1.3-4.4 2.1-7.2 2.6-2.7 0.5-5.5 0.7-8.4 0.7h-30.4v-34.5h32.9c5.8 0.1 10.5 1.4 14.3 4.2zM220.8 212.5c-4.3 3.2-10 4.8-16.9 4.8h-35.3v-40.7h34.7c3.2 0 6.3 0.3 9.1 0.9 2.9 0.6 5.5 1.6 7.7 3.1 2.2 1.4 4 3.4 5.3 5.9s1.9 5.7 1.9 9.6c-0.1 7.7-2.2 13.1-6.5 16.4zM432 480h-352c-44.2 0-80-35.8-80-80v-352c0-44.2 35.8-80 80-80h352c44.2 0 80 35.8 80 80v352c0 44.2-35.8 80-80 80zM292.7 289.3h59.8v-14.6h-59.8v14.6zM255.3 175.1c-2.9-5.5-6.8-9.9-11.7-13.4s-10.5-6-16.8-7.7c-6.2-1.7-12.7-2.5-19.3-2.5h-71.5v147.7h69.6c7.1 0 13.4-0.6 19.3-1.9 5.8-1.2 10.7-3.3 14.9-6.1 4.1-2.8 7.3-6.5 9.6-11.3 2.3-4.6 3.4-10.5 3.4-17.3 0-7.4-1.7-13.6-5.1-18.6s-8.4-9-15.1-12.2c9.1-2.6 15.8-7.2 20.3-13.7 4.5-6.6 6.7-14.5 6.7-23.7 0-7.5-1.4-13.9-4.3-19.3zM375.8 198h-77.1c0-8.5 2.9-16.5 7.3-20.7 4.4-4.3 10.8-6.5 19-6.5 5.9 0 11 1.5 15.3 4.5s6.8 6.2 7.8 9.5h25.9c-4.2-12.9-10.5-22.1-19.1-27.6-8.5-5.6-18.9-8.3-31-8.3-8.4 0-16 1.4-22.8 4.1s-12.5 6.5-17.3 11.5c-4.7 5-8.3 10.9-10.9 17.8s-3.8 14.5-3.8 22.8c0 8 1.3 15.5 3.9 22.4 2.7 6.9 6.4 12.9 11.2 17.9 4.9 5 10.6 9 17.3 11.9s14.1 4.4 22.3 4.4c9 0 17-1.7 23.8-5.3 6.8-3.5 12.3-8.2 16.7-14.2 4.4-5.9 7.5-12.7 9.4-20.3 2-7.7 2.7-15.7 2.1-23.9z" />
<glyph unicode="&#xe647;" d="M220.8 212.5c-4.3 3.2-10 4.8-16.9 4.8h-35.3v-40.7h34.7c3.2 0 6.3 0.3 9.1 0.9 2.9 0.6 5.5 1.6 7.7 3.1 2.2 1.4 4 3.4 5.3 5.9s1.9 5.7 1.9 9.6c-0.1 7.7-2.2 13.1-6.5 16.4zM215.7 243.7c3.7 2.7 5.6 7.2 5.6 13.4 0 3.4-0.6 6.3-1.8 8.5-1.3 2.2-2.9 3.9-5 5.1-2.1 1.3-4.4 2.1-7.2 2.6-2.7 0.5-5.5 0.7-8.4 0.7h-30.4v-34.5h32.9c5.8 0.1 10.5 1.4 14.3 4.2zM323.1 239.3c-4.7 0-8.6-0.8-11.7-2.4-3-1.6-5.5-3.6-7.4-5.9-1.9-2.4-3.2-4.9-3.9-7.5-0.8-2.6-1.2-5-1.3-7h47.8c-0.7 7.5-3.3 13-6.8 16.9-3.6 3.8-9.5 5.9-16.7 5.9zM256 480c-141.4 0-256-114.6-256-256s114.6-256 256-256 256 114.6 256 256-114.6 256-256 256zM292.7 289.3h59.8v-14.6h-59.8v14.6zM255.3 175.1c-2.9-5.5-6.8-9.9-11.7-13.4s-10.5-6-16.8-7.7c-6.2-1.7-12.7-2.5-19.3-2.5h-71.5v147.7h69.6c7.1 0 13.4-0.6 19.3-1.9 5.8-1.2 10.7-3.3 14.9-6.1 4.1-2.8 7.3-6.5 9.6-11.3 2.3-4.6 3.4-10.5 3.4-17.3 0-7.4-1.7-13.6-5.1-18.6s-8.4-9-15.1-12.2c9.1-2.6 15.8-7.2 20.3-13.7 4.5-6.6 6.7-14.5 6.7-23.7 0-7.5-1.4-13.9-4.3-19.3zM375.8 198h-77.1c0-8.5 2.9-16.5 7.3-20.7 4.4-4.3 10.8-6.5 19-6.5 5.9 0 11 1.5 15.3 4.5s6.8 6.2 7.8 9.5h25.9c-4.2-12.9-10.5-22.1-19.1-27.6-8.5-5.6-18.9-8.3-31-8.3-8.4 0-16 1.4-22.8 4.1s-12.5 6.5-17.3 11.5c-4.7 5-8.3 10.9-10.9 17.8s-3.8 14.5-3.8 22.8c0 8 1.3 15.5 3.9 22.4 2.7 6.9 6.4 12.9 11.2 17.9 4.9 5 10.6 9 17.3 11.9s14.1 4.4 22.3 4.4c9 0 17-1.7 23.8-5.3 6.8-3.5 12.3-8.2 16.7-14.2 4.4-5.9 7.5-12.7 9.4-20.3 2-7.7 2.7-15.7 2.1-23.9z" />
<glyph unicode="&#xe648;" d="M134 175.8l108.4-71.2v63.9l-59.8 39.3-48.6-32zM124.7 245.8v-43.7l33.3 21.8-33.3 21.9zM242.4 279.5v63.9l-108.4-71.2 48.6-32 59.8 39.3zM378 272.2l-108.4 71.2v-63.9l59.8-39.3 48.6 32zM256 256l-48.6-32 48.6-32 48.6 32-48.6 32zM256 480c-141.4 0-256-114.6-256-256s114.6-256 256-256 256 114.6 256 256c0 141.4-114.6 256-256 256zM414.5 174.6c0-4.6-2.3-8.8-6.1-11.3l-144.9-95.2c-4.5-3-10.4-3-14.9 0l-144.9 95.2c-3.8 2.5-6.1 6.8-6.1 11.3v98.8c0 4.6 2.3 8.8 6.1 11.3l144.9 95.2c4.5 3 10.4 3 14.9 0l144.9-95.2c3.8-2.5 6.1-6.8 6.1-11.3v-98.8zM269.6 168.5v-63.9l108.4 71.2-48.6 32-59.8-39.3zM387.3 202.2v43.7l-33.2-21.9 33.2-21.8z" />
<glyph unicode="&#xe649;" d="M432 480h-352c-44.2 0-80-35.8-80-80v-352c0-44.2 35.8-80 80-80h352c44.2 0 80 35.8 80 80v352c0 44.2-35.8 80-80 80zM256 96c-70.7 0-128 57.3-128 128s57.3 128 128 128 128-57.3 128-128c0-70.7-57.3-128-128-128zM332.2 254.4l-72.5 47.6c-2.3 1.5-5.2 1.5-7.4 0l-72.4-47.6c-1.9-1.3-3.1-3.4-3.1-5.7v-49.4c0-2.3 1.1-4.4 3.1-5.7l72.4-47.6c2.3-1.5 5.2-1.5 7.4 0l72.4 47.6c1.9 1.3 3.1 3.4 3.1 5.7v49.4c0 2.3-1.1 4.4-3 5.7zM262.8 283.7l54.2-35.6-24.3-16-29.9 19.6v32zM249.2 283.7v-32l-29.9-19.6-24.3 16 54.2 35.6zM190.3 234.9l16.7-10.9-16.6-10.9v21.8zM249.2 164.3l-54.2 35.6 24.3 16 29.9-19.6v-32zM256 208l-24.3 16 24.3 16 24.3-16-24.3-16zM262.8 164.3v32l29.9 19.6 24.3-16-54.2-35.6zM321.7 213.1l-16.7 10.9 16.6 10.9v-21.8z" />
<glyph unicode="&#xe64a;" d="M332.2 254.4l-72.5 47.6c-2.3 1.5-5.2 1.5-7.4 0l-72.4-47.6c-1.9-1.3-3.1-3.4-3.1-5.7v-49.4c0-2.3 1.1-4.4 3.1-5.7l72.4-47.6c2.3-1.5 5.2-1.5 7.4 0l72.4 47.6c1.9 1.3 3.1 3.4 3.1 5.7v49.4c0 2.3-1.1 4.4-3 5.7zM262.8 283.7l54.2-35.6-24.3-16-29.9 19.6v32zM249.2 283.7v-32l-29.9-19.6-24.3 16 54.2 35.6zM190.3 234.9l16.7-10.9-16.6-10.9v21.8zM249.2 164.3l-54.2 35.6 24.3 16 29.9-19.6v-32zM256 208l-24.3 16 24.3 16 24.3-16-24.3-16zM262.8 164.3v32l29.9 19.6 24.3-16-54.2-35.6zM321.7 213.1l-16.7 10.9 16.6 10.9v-21.8zM256 480c-141.4 0-256-114.6-256-256s114.6-256 256-256 256 114.6 256 256-114.6 256-256 256zM256 96c-70.7 0-128 57.3-128 128s57.3 128 128 128 128-57.3 128-128c0-70.7-57.3-128-128-128z" />
<glyph unicode="&#xe64b;" d="M496 356.9h-19c-7 0-15.2-9.2-15.2-15.7v-235.9c0-6.5 8.1-16.3 15.2-16.3h19v-54.8h-170.3v54.8h34.2v247.8h-1.6l-84.1-302.6h-65.1l-83 302.6h-1.6v-247.8h35.8v-54.8h-144.3v54.8h18.4c7.6 0 15.7 9.8 15.7 16.3v235.8c0 6.5-8.1 15.7-15.7 15.7h-18.4v57h180.1l59.1-220.2h1.6l59.7 220.2h179.5v-56.9z" />
<glyph unicode="&#xe64c;" d="M432 480h-352c-44.2 0-80-35.8-80-80v-352c0-44.2 35.8-80 80-80h352c44.2 0 80 35.8 80 80v352c0 44.2-35.8 80-80 80zM376 290.4h-9.5c-3.5 0-7.6-4.6-7.6-7.9v-118c0-3.3 4.1-8.1 7.6-8.1h9.5v-27.4h-85.2v27.4h17.1v124h-0.8l-42-151.3h-32.5l-41.5 151.3h-0.8v-123.9h17.9v-27.4h-72.2v27.4h9.2c3.8 0 7.9 4.9 7.9 8.1v118c0 3.3-4.1 7.9-7.9 7.9h-9.2v28.5h90l29.6-110.1h0.8l29.8 110.1h89.8v-28.6z" />
<glyph unicode="&#xe64d;" d="M256 480c-141.4 0-256-114.6-256-256s114.6-256 256-256 256 114.6 256 256-114.6 256-256 256zM376 290.4h-9.5c-3.5 0-7.6-4.6-7.6-7.9v-118c0-3.3 4.1-8.1 7.6-8.1h9.5v-27.4h-85.2v27.4h17.1v124h-0.8l-42-151.3h-32.5l-41.5 151.3h-0.8v-123.9h17.9v-27.4h-72.2v27.4h9.2c3.8 0 7.9 4.9 7.9 8.1v118c0 3.3-4.1 7.9-7.9 7.9h-9.2v28.5h90l29.6-110.1h0.8l29.8 110.1h89.8v-28.6z" />
<glyph unicode="&#xe64e;" d="M500.6 325.5c-51.8-1.5-114.3 39.2-138.6 54.5-2.2 1.4-4.5 2.7-6.9 3.9-2.5 1.4-5.2 2.7-7.8 4v-149.5h-0.1c0.1-13.4-3.9-27.5-12.3-41l-0.7-1.2c-24.2-39.2-75.2-62-123-45.8-46.4 15.7-58.8 60.6-34.2 100.4l0.7 1.2c24.2 39.1 75.2 62 123 45.8 3.7-1.2 7.1-2.7 10.3-4.3v108c-17.1 4.6-35.3 7.3-54.4 7.3-110.5 0-192.6-82.8-192.6-184.8v-1.3c0-102 81.5-183.5 191.4-183.5 110.6 0 192.8 82.8 192.8 184.8v1.3c0 7.9-0.6 15.7-1.5 23.4 57.6 15.1 81.3 74.7 53.9 76.8z" />
<glyph unicode="&#xe64f;" d="M432 480h-352c-44.2 0-80-35.8-80-80v-352c0-44.2 35.8-80 80-80h352c44.2 0 80 35.8 80 80v352c0 44.2-35.8 80-80 80zM351.3 236.4c0.5-3.8 0.8-7.7 0.8-11.7v-0.7c0-51-41.1-92.4-96.4-92.4-55 0-95.7 40.7-95.7 91.7v0.7c0 51 41.1 92.4 96.4 92.4 9.6 0 18.6-1.3 27.2-3.6v-54.1c-1.6 0.8-3.3 1.5-5.2 2.2-23.9 8.1-49.4-3.3-61.5-22.9l-0.4-0.6c-12.3-19.9-6.1-42.4 17.1-50.2 23.9-8.1 49.4 3.3 61.5 22.9l0.4 0.6c4.2 6.8 6.2 13.8 6.1 20.5v0 74.8c1.3-0.7 2.6-1.3 3.9-2 1.2-0.6 2.3-1.2 3.4-2 12.1-7.7 43.4-28 69.3-27.2 13.8-1.1 1.9-30.9-26.9-38.4z" />
<glyph unicode="&#xe650;" d="M256 480c-141.4 0-256-114.6-256-256s114.6-256 256-256 256 114.6 256 256-114.6 256-256 256zM351.3 236.4c0.5-3.8 0.8-7.7 0.8-11.7v-0.7c0-51-41.1-92.4-96.4-92.4-55 0-95.7 40.7-95.7 91.7v0.7c0 51 41.1 92.4 96.4 92.4 9.6 0 18.6-1.3 27.2-3.6v-54.1c-1.6 0.8-3.3 1.5-5.2 2.2-23.9 8.1-49.4-3.3-61.5-22.9l-0.4-0.6c-12.3-19.9-6.1-42.4 17.1-50.2 23.9-8.1 49.4 3.3 61.5 22.9l0.4 0.6c4.2 6.8 6.2 13.8 6.1 20.5v0 74.8c1.3-0.7 2.6-1.3 3.9-2 1.2-0.6 2.3-1.2 3.4-2 12.1-7.7 43.4-28 69.3-27.2 13.8-1.1 1.9-30.9-26.9-38.4z" />
<glyph unicode="&#xe651;" d="M483.1 293.9c-38.6 38.6-101.1 38.6-139.7 0l-157.3-157.2c-9.6-9.6-9.6-25.3 0-34.9 9.7-9.6 25.3-9.6 34.9 0l157.2 157.2c19.3 19.3 50.6 19.3 69.9 0s19.3-50.6 0-69.9l-154.1-154.2c19.3-19.3 50.6-19.3 69.9 0l119.2 119.2c38.5 38.6 38.5 101.2 0 139.8zM430.7 241.5c-9.6 9.6-25.3 9.6-34.9 0l-157.3-157.2c-19.3-19.3-50.6-19.3-69.9 0-9.6 9.6-25.3 9.6-34.9 0-9.7-9.7-9.7-25.3 0-34.9 38.6-38.6 101.1-38.6 139.7 0l157.2 157.2c9.7 9.6 9.7 25.2 0.1 34.9zM378.3 398.7c-38.6 38.6-101.1 38.6-139.7 0l-157.3-157.2c-9.6-9.6-9.6-25.3 0-34.9 9.6-9.7 25.3-9.7 34.9 0l157.2 157.2c19.3 19.3 50.6 19.3 69.9 0 9.7-9.6 25.3-9.6 34.9 0 9.7 9.6 9.7 25.2 0.1 34.9zM325.9 346.3c-9.6 9.6-25.3 9.6-34.9 0l-157.3-157.2c-19.3-19.3-50.6-19.3-69.9 0s-19.3 50.6 0 69.9l154.2 154.1c-19.3 19.3-50.6 19.3-69.9 0l-119.2-119.2c-38.6-38.6-38.6-101.1 0-139.7s101.1-38.6 139.7 0l157.2 157.2c9.7 9.6 9.7 25.2 0.1 34.9z" />
<glyph unicode="&#xe652;" d="M432 480h-352c-44.2 0-80-35.8-80-80v-352c0-44.2 35.8-80 80-80h352c44.2 0 80 35.8 80 80v352c0 44.2-35.8 80-80 80zM317.1 311.3c4.8-4.8 4.8-12.6 0-17.5-4.8-4.8-12.6-4.8-17.5 0-9.6 9.6-25.3 9.6-34.9 0l-78.6-78.6c-4.8-4.8-12.6-4.8-17.5 0-4.8 4.8-4.8 12.6 0 17.5l78.6 78.6c19.4 19.3 50.6 19.3 69.9 0zM142.5 189.1c-19.3 19.3-19.3 50.6 0 69.9l59.6 59.6c9.6 9.6 25.3 9.6 34.9 0l-77.1-77.1c-9.7-9.7-9.7-25.3 0-34.9 9.6-9.6 25.3-9.6 34.9 0l78.6 78.6c4.8 4.8 12.6 4.8 17.5 0 4.8-4.8 4.8-12.6 0-17.5l-78.6-78.6c-19.3-19.3-50.5-19.3-69.8 0zM194.9 136.7c-4.8 4.8-4.8 12.6 0 17.5 4.8 4.8 12.6 4.8 17.5 0 9.6-9.6 25.3-9.6 34.9 0l78.6 78.6c4.8 4.8 12.6 4.8 17.5 0 4.8-4.8 4.8-12.6 0-17.5l-78.6-78.6c-19.4-19.3-50.6-19.3-69.9 0zM369.5 189.1l-59.6-59.6c-9.7-9.6-25.3-9.6-34.9 0l77.1 77.1c9.6 9.6 9.6 25.3 0 34.9s-25.3 9.6-34.9 0l-78.6-78.6c-4.8-4.8-12.6-4.8-17.5 0-4.8 4.8-4.8 12.6 0 17.5l78.6 78.6c19.3 19.3 50.6 19.3 69.9 0 19.2-19.4 19.2-50.6-0.1-69.9z" />
<glyph unicode="&#xe653;" d="M256 480c-141.4 0-256-114.6-256-256s114.6-256 256-256 256 114.6 256 256-114.6 256-256 256zM317.1 311.3c4.8-4.8 4.8-12.6 0-17.5-4.8-4.8-12.6-4.8-17.5 0-9.6 9.6-25.3 9.6-34.9 0l-78.6-78.6c-4.8-4.8-12.6-4.8-17.5 0-4.8 4.8-4.8 12.6 0 17.5l78.6 78.6c19.4 19.3 50.6 19.3 69.9 0zM142.5 189.1c-19.3 19.3-19.3 50.6 0 69.9l59.6 59.6c9.6 9.6 25.3 9.6 34.9 0l-77.1-77.1c-9.7-9.7-9.7-25.3 0-34.9 9.6-9.6 25.3-9.6 34.9 0l78.6 78.6c4.8 4.8 12.6 4.8 17.5 0 4.8-4.8 4.8-12.6 0-17.5l-78.6-78.6c-19.3-19.3-50.5-19.3-69.8 0zM194.9 136.7c-4.8 4.8-4.8 12.6 0 17.5 4.8 4.8 12.6 4.8 17.5 0 9.6-9.6 25.3-9.6 34.9 0l78.6 78.6c4.8 4.8 12.6 4.8 17.5 0 4.8-4.8 4.8-12.6 0-17.5l-78.6-78.6c-19.4-19.3-50.6-19.3-69.9 0zM369.5 189.1l-59.6-59.6c-9.7-9.6-25.3-9.6-34.9 0l77.1 77.1c9.6 9.6 9.6 25.3 0 34.9s-25.3 9.6-34.9 0l-78.6-78.6c-4.8-4.8-12.6-4.8-17.5 0-4.8 4.8-4.8 12.6 0 17.5l78.6 78.6c19.3 19.3 50.6 19.3 69.9 0 19.2-19.4 19.2-50.6-0.1-69.9z" />
<glyph unicode="&#xe654;" d="M466.4 225.4c-12.4-2.9-24.3-4.1-35.1-4.1-60.6 0-107.2 42.3-107.2 115.8 0 36 13.9 54.8 33.6 54.8 18.8 0 31.2-16.8 31.2-51 0-19.4-5.2-40.7-9-53.3 0 0 18.7-32.6 69.7-22.6 10.8 24.1 16.7 55.2 16.7 82.5 0.1 73.7-37.4 116.5-106.1 116.5-70.7 0-112-54.3-112-125.9 0-71 33.2-131.9 87.9-159.6-23-46-52.3-86.5-82.8-117.1-55.4 66.9-105.4 156.2-126 330.5h-81.7c37.7-290.2 150.2-382.6 180-400.4 16.8-10.1 31.3-9.6 46.7-1 24.1 13.7 96.7 86.2 136.8 171.1 16.9 0 37.1 2 57.3 6.5v57.3z" />
<glyph unicode="&#xe655;" d="M432 480h-352c-44.2 0-80-35.8-80-80v-352c0-44.2 35.8-80 80-80h352c44.2 0 80 35.8 80 80v352c0 44.2-35.8 80-80 80zM306.9 308c-9.9 0-16.8-9.4-16.8-27.4 0-36.8 23.3-57.9 53.6-57.9 5.4 0 11.4 0.6 17.5 2.1v-28.6c-10.1-2.3-20.2-3.2-28.7-3.3-20.1-42.5-56.3-78.7-68.4-85.6-7.7-4.3-14.9-4.6-23.3 0.5-14.9 8.9-71.1 55.1-90 200.2h40.8c10.3-87.1 35.3-131.8 63-165.2 15.3 15.3 29.9 35.5 41.4 58.5-27.3 13.9-43.9 44.3-43.9 79.8 0 35.8 20.7 63 56 63 34.4 0 53.1-21.4 53.1-58.2 0-13.7-2.9-29.2-8.4-41.3-25.5-5-34.8 11.3-34.8 11.3 1.9 6.3 4.5 16.9 4.5 26.6 0 17-6.2 25.5-15.6 25.5z" />
<glyph unicode="&#xe656;" d="M256 480c-141.4 0-256-114.6-256-256s114.6-256 256-256 256 114.6 256 256-114.6 256-256 256zM306.9 308c-9.9 0-16.8-9.4-16.8-27.4 0-36.8 23.3-57.9 53.6-57.9 5.4 0 11.4 0.6 17.5 2.1v-28.6c-10.1-2.3-20.2-3.2-28.7-3.3-20.1-42.5-56.3-78.7-68.4-85.6-7.7-4.3-14.9-4.6-23.3 0.5-14.9 8.9-71.1 55.1-90 200.2h40.8c10.3-87.1 35.3-131.8 63-165.2 15.3 15.3 29.9 35.5 41.4 58.5-27.3 13.9-43.9 44.3-43.9 79.8 0 35.8 20.7 63 56 63 34.4 0 53.1-21.4 53.1-58.2 0-13.7-2.9-29.2-8.4-41.3-25.5-5-34.8 11.3-34.8 11.3 1.9 6.3 4.5 16.9 4.5 26.6 0 17-6.2 25.5-15.6 25.5z" />
<glyph unicode="&#xe657;" d="M216.8 164.9c8.2 2.1 13.8 9.7 14.4 19.4 0.5 10-4.7 18.7-13.1 21.9 0 0-23.3 9.5-23.4 9.5-80 33-83.6 34.3-87.6 34.4-6.1 0.2-11.7-2.9-15.5-8.8-8-12.9-11.5-53.6-8.7-80.6 1-8.9 2.6-16.3 4.9-20.8 3.2-6.1 8.7-9.8 14.8-10 4-0.2 6.4 0.5 80.9 24.4 0 0 33.1 10.6 33.3 10.6zM258.5 134.4c-9.2 3.6-19.2 1.4-24.8-5.6 0 0-16.3-19.4-16.4-19.4-56.1-65.8-58.4-68.9-59.8-72.8-0.8-2.3-1.2-4.7-0.9-7.2 0.3-3.5 1.9-7 4.5-10.2 13-15.4 75.3-38.4 95.2-35 6.9 1.3 11.9 5.1 14.1 10.9 1.3 3.8 1.4 6.3 1.7 84.6 0 0 0.2 34.6 0.2 34.9 0.7 8.6-4.8 16.4-13.8 19.8zM260.9 466.7c-1.7 6.3-6.6 10.7-13.6 12.5-21.6 5.4-104.1-17.8-119.4-33.5-4.9-5.1-6.7-11.4-5.3-17 2.4-4.9 104.6-165.8 104.6-165.8 15.1-24.5 27.5-20.7 31.5-19.4 4 1.2 16.3 5 14.9 33.6-1.4 33.5-11.5 182.7-12.7 189.6zM333.8 201.3c0 0-0.4-0.6-0.5-0.7 4.2 1.6 11.7 3.4 25.2 6.6 84.6 20.5 87.8 21.6 91.2 23.8 5.1 3.5 7.7 9.2 7.2 16.3 0 0.2 0 0.5 0 0.7-2.2 20.7-38.5 74.8-56.5 83.5-6.3 3.1-12.7 2.9-17.9-0.7-3.3-2.1-5.7-5.4-50.9-67.3 0 0-20.5-27.9-20.7-28.1-5.4-6.5-5.5-16-0.2-24 5.4-8.4 14.7-12.4 23.1-10.1zM453.7 119.1c-3.2 2.4-5.6 3.3-80 27.7 0 0-32.7 10.8-33.1 11-7.9 3-16.9 0.2-23-7.3-6.3-7.7-7.2-17.8-2.2-25.5l13.1-21.4c44.2-71.8 47.5-76.8 50.7-79.3 4.9-3.9 11.2-4.5 17.6-1.9 18.8 7.5 59.8 59.7 62.7 79.7 1.2 7.1-1 13.1-5.8 17z" />
<glyph unicode="&#xe658;" d="M432 480h-352c-44.2 0-80-35.8-80-80v-352c0-44.2 35.8-80 80-80h352c44.2 0 80 35.8 80 80v352c0 44.2-35.8 80-80 80zM179.3 176.9c-3.1 0.1-5.8 1.9-7.4 5-1.2 2.2-2 5.9-2.5 10.4-1.4 13.5 0.3 33.8 4.3 40.3 1.9 3 4.7 4.5 7.7 4.4 2 0 3.8-0.7 43.8-17.2 0 0 11.7-4.8 11.7-4.8 4.2-1.6 6.8-6 6.5-10.9-0.3-4.8-3.1-8.6-7.2-9.7-0.1 0-16.6-5.3-16.6-5.3-37.1-11.9-38.3-12.3-40.3-12.2zM264.2 169.4c0-0.2-0.1-17.5-0.1-17.5-0.1-39.1-0.2-40.4-0.8-42.3-1.1-2.9-3.6-4.8-7.1-5.5-9.9-1.7-41.1 9.8-47.6 17.5-1.3 1.6-2.1 3.3-2.3 5.1-0.1 1.2 0 2.4 0.5 3.6 0.7 1.9 1.8 3.5 29.9 36.4 0 0 8.2 9.7 8.2 9.7 2.8 3.5 7.8 4.6 12.4 2.8 4.5-1.7 7.2-5.6 6.9-9.8zM257.4 233.7c-2-0.6-8.2-2.5-15.7 9.7 0 0-51.1 80.4-52.3 82.9-0.7 2.8 0.2 6 2.6 8.5 7.6 7.9 48.9 19.5 59.7 16.8 3.5-0.9 6-3.1 6.8-6.2 0.6-3.5 5.6-78.1 6.4-94.8 0.6-14.4-5.5-16.3-7.5-16.9zM283.4 229.7c0.1 0.1 10.4 14.1 10.4 14.1 22.6 30.9 23.8 32.6 25.5 33.6 2.6 1.8 5.8 1.9 9 0.3 9-4.4 27.2-31.4 28.3-41.8 0-0.1 0-0.2 0-0.4 0.2-3.5-1.1-6.4-3.6-8.1-1.7-1.1-3.3-1.6-45.6-11.9-6.8-1.6-10.5-2.5-12.6-3.3 0.1 0.1 0.2 0.4 0.2 0.4-4.2-1.2-8.8 0.9-11.6 5-2.7 4.1-2.7 8.8 0 12.1zM357.9 163.1c-1.5-10-22-36.1-31.4-39.9-3.2-1.3-6.4-1-8.8 0.9-1.6 1.2-3.3 3.8-25.4 39.7l-6.6 10.7c-2.5 3.8-2 8.9 1.1 12.7 3 3.7 7.6 5.2 11.5 3.6 0.2-0.1 16.5-5.5 16.5-5.5 37.2-12.2 38.4-12.7 40-13.9 2.5-1.8 3.5-4.8 3.1-8.3z" />
<glyph unicode="&#xe659;" d="M256 480c-141.4 0-256-114.6-256-256s114.6-256 256-256 256 114.6 256 256-114.6 256-256 256zM179.3 176.9c-3.1 0.1-5.8 1.9-7.4 5-1.2 2.2-2 5.9-2.5 10.4-1.4 13.5 0.3 33.8 4.3 40.3 1.9 3 4.7 4.5 7.7 4.4 2 0 3.8-0.7 43.8-17.2 0 0 11.7-4.8 11.7-4.8 4.2-1.6 6.8-6 6.5-10.9-0.3-4.8-3.1-8.6-7.2-9.7-0.1 0-16.6-5.3-16.6-5.3-37.1-11.9-38.3-12.3-40.3-12.2zM264.2 169.4c0-0.2-0.1-17.5-0.1-17.5-0.1-39.1-0.2-40.4-0.8-42.3-1.1-2.9-3.6-4.8-7.1-5.5-9.9-1.7-41.1 9.8-47.6 17.5-1.3 1.6-2.1 3.3-2.3 5.1-0.1 1.2 0 2.4 0.5 3.6 0.7 1.9 1.8 3.5 29.9 36.4 0 0 8.2 9.7 8.2 9.7 2.8 3.5 7.8 4.6 12.4 2.8 4.5-1.7 7.2-5.6 6.9-9.8zM257.4 233.7c-2-0.6-8.2-2.5-15.7 9.7 0 0-51.1 80.4-52.3 82.9-0.7 2.8 0.2 6 2.6 8.5 7.6 7.9 48.9 19.5 59.7 16.8 3.5-0.9 6-3.1 6.8-6.2 0.6-3.5 5.6-78.1 6.4-94.8 0.6-14.4-5.5-16.3-7.5-16.9zM283.4 229.7c0.1 0.1 10.4 14.1 10.4 14.1 22.6 30.9 23.8 32.6 25.5 33.6 2.6 1.8 5.8 1.9 9 0.3 9-4.4 27.2-31.4 28.3-41.8 0-0.1 0-0.2 0-0.4 0.2-3.5-1.1-6.4-3.6-8.1-1.7-1.1-3.3-1.6-45.6-11.9-6.8-1.6-10.5-2.5-12.6-3.3 0.1 0.1 0.2 0.4 0.2 0.4-4.2-1.2-8.8 0.9-11.6 5-2.7 4.1-2.7 8.8 0 12.1zM357.9 163.1c-1.5-10-22-36.1-31.4-39.9-3.2-1.3-6.4-1-8.8 0.9-1.6 1.2-3.3 3.8-25.4 39.7l-6.6 10.7c-2.5 3.8-2 8.9 1.1 12.7 3 3.7 7.6 5.2 11.5 3.6 0.2-0.1 16.5-5.5 16.5-5.5 37.2-12.2 38.4-12.7 40-13.9 2.5-1.8 3.5-4.8 3.1-8.3z" />
<glyph unicode="&#xe65a;" d="M237.5 202.1c0 101.6 31.2 190.6 55.4 244.4 7.6 16.8 13.9 22.6 30.7 23.1 20.8 0.5 45.9-3.5 65.9-6.9 17.1-2.9 24.3-25.4 27.9-39.6 18.6-72.4 74.7-298.5 88.7-358.9 2.9-12.4 10.2-32.8 1.7-36.8-6.9-3.3-39.7-13.7-63.1-16.8-9.1-1.2-18 9.3-22.9 23.9-24.7 74.4-56.6 188.7-83.1 266.2-0.6-58.7-4.7-172.4-6.1-191.8-1.8-26.7-6.9-59.1-28.1-62.9-17.2-3.1-37.8-6.5-63.3-6.5-20 0-28.1 14.8-38.2 29.5-15.9 23.2-49 77.3-65.9 110 5.3-36.4 11.2-75.1 13.8-93.1 1.7-12 0.7-23.5-9.7-31.2-15.4-11.3-51.8-22.7-65.1-23.1s-23.5 13.4-25.9 25.2c-10.9 53.9-18.6 128.8-18.2 177.3 0.4 44.1 0.7 94.2 3.2 132.3 0.7 11.1 4.4 18.2 14.7 22.3 20 8 47.6 10 74.7 4.8 12.2-2.4 16.2-13 21.8-22 27.6-44.2 60.4-107.5 91.1-169.4z" />
<glyph unicode="&#xe65b;" d="M432 480h-352c-44.2 0-80-35.8-80-80v-352c0-44.2 35.8-80 80-80h352c44.2 0 80 35.8 80 80v352c0 44.2-35.8 80-80 80zM382 125.7c-3.4-1.6-19.8-6.8-31.6-8.4-4.6-0.6-9 4.7-11.4 11.9-12.4 37.2-28.3 94.4-41.6 133.1-0.3-29.3-2.4-86.2-3-95.9-0.9-13.4-3.4-29.5-14.1-31.5-8.6-1.6-18.9-3.2-31.7-3.2-10 0-14.1 7.4-19.1 14.8-7.9 11.6-24.5 38.6-33 55 2.6-18.2 5.6-37.5 6.9-46.5 0.9-6 0.4-11.7-4.9-15.6-7.7-5.7-25.9-11.3-32.6-11.5s-11.7 6.6-12.9 12.5c-5.5 26.9-9.3 64.4-9.1 88.6 0.2 22.1 0.3 47.1 1.6 66.2 0.4 5.6 2.2 9.1 7.3 11.2 10 4 23.8 5 37.4 2.4 6.1-1.2 8.1-6.5 10.9-11 13.8-22.1 30.1-53.7 45.5-84.7 0 50.8 15.6 95.3 27.7 122.2 3.8 8.4 7 11.3 15.4 11.5 10.4 0.3 23-1.7 33-3.4 8.5-1.5 12.1-12.7 14-19.8 9.3-36.2 37.4-149.2 44.4-179.4 1.5-6.3 5.2-16.5 0.9-18.5z" />
<glyph unicode="&#xe65c;" d="M256 480c-141.4 0-256-114.6-256-256s114.6-256 256-256 256 114.6 256 256-114.6 256-256 256zM382 125.7c-3.4-1.6-19.8-6.8-31.6-8.4-4.6-0.6-9 4.7-11.4 11.9-12.4 37.2-28.3 94.4-41.6 133.1-0.3-29.3-2.4-86.2-3-95.9-0.9-13.4-3.4-29.5-14.1-31.5-8.6-1.6-18.9-3.2-31.7-3.2-10 0-14.1 7.4-19.1 14.8-7.9 11.6-24.5 38.6-33 55 2.6-18.2 5.6-37.5 6.9-46.5 0.9-6 0.4-11.7-4.9-15.6-7.7-5.7-25.9-11.3-32.6-11.5s-11.7 6.6-12.9 12.5c-5.5 26.9-9.3 64.4-9.1 88.6 0.2 22.1 0.3 47.1 1.6 66.2 0.4 5.6 2.2 9.1 7.3 11.2 10 4 23.8 5 37.4 2.4 6.1-1.2 8.1-6.5 10.9-11 13.8-22.1 30.1-53.7 45.5-84.7 0 50.8 15.6 95.3 27.7 122.2 3.8 8.4 7 11.3 15.4 11.5 10.4 0.3 23-1.7 33-3.4 8.5-1.5 12.1-12.7 14-19.8 9.3-36.2 37.4-149.2 44.4-179.4 1.5-6.3 5.2-16.5 0.9-18.5z" />
<glyph unicode="&#xe65d;" d="M431.6 400c-72.6 0-86.4-42.4-108-73.4 0 0-58.9-89.1-81.3-123l-48.2 196.4h-129.7l81.8-328.9c16.9-58.8 65.1-55 65.1-55 33 0 57.7 17.4 80.1 50.2l220.6 333.7c0 0-77.2 0-80.4 0z" />
<glyph unicode="&#xe65e;" d="M432 480h-352c-44.2 0-80-35.8-80-80v-352c0-44.2 35.8-80 80-80h352c44.2 0 80 35.8 80 80v352c0 44.2-35.8 80-80 80zM273.7 145.1c-11.2-16.4-23.6-25.1-40.1-25.1 0 0-24.1-1.9-32.5 27.5l-40.9 164.5h64.8l24.1-98.2c11.2 17 40.6 61.5 40.6 61.5 10.8 15.5 17.7 36.7 54 36.7 1.6 0 40.2 0 40.2 0l-110.2-166.9z" />
<glyph unicode="&#xe65f;" d="M256 480c-141.4 0-256-114.6-256-256s114.6-256 256-256 256 114.6 256 256-114.6 256-256 256zM273.7 145.1c-11.2-16.4-23.6-25.1-40.1-25.1 0 0-24.1-1.9-32.5 27.5l-40.9 164.5h64.8l24.1-98.2c11.2 17 40.6 61.5 40.6 61.5 10.8 15.5 17.7 36.7 54 36.7 1.6 0 40.2 0 40.2 0l-110.2-166.9z" />
<glyph unicode="&#xe660;" d="M384 325.8h-40.7v-122.2h40.7v122.2zM272 325.8h-40.7v-122.2h40.7v122.2zM78.6 448l-30.6-81.5v-325.8h112v-61.1h61.1l61.1 61.1h91.6l122.2 122.1v285.2h-417.4zM455.3 183.2l-71.3-71.3h-112l-61.1-61v61h-91.7v295.4h336v-224.1z" />
<glyph unicode="&#xe661;" d="M233.5 137.4l30.5 30.6h56l35.6 35.6v112h-168v-147.6h45.8v-30.6zM299.6 274.9h20.4v-61.1h-20.4v61.1zM243.6 274.9h20.4v-61.1h-20.4v61.1zM432 480h-352c-44.2 0-80-35.8-80-80v-352c0-44.2 35.8-80 80-80h352c44.2 0 80 35.8 80 80v352c0 44.2-35.8 80-80 80zM376 193.4l-61.1-61.1h-45.8l-30.5-30.6h-30.6v30.6h-56v163l15.3 40.7h208.7v-142.6z" />
<glyph unicode="&#xe662;" d="M233.5 137.4l30.5 30.6h56l35.6 35.6v112h-168v-147.6h45.8v-30.6zM299.6 274.9h20.4v-61.1h-20.4v61.1zM243.6 274.9h20.4v-61.1h-20.4v61.1zM256 480c-141.4 0-256-114.6-256-256s114.6-256 256-256 256 114.6 256 256-114.6 256-256 256zM376 193.4l-61.1-61.1h-45.8l-30.5-30.6h-30.6v30.6h-56v163l15.3 40.7h208.7v-142.6z" />
<glyph unicode="&#xe663;" d="M356.8 256.6c-50.8 0-87-40.6-87-89.9v-1.5c0-49.3 36.3-91.4 88.5-91.4 50.8 0 87 40.6 87 89.9v1.5c0 49.4-37.7 91.4-88.5 91.4zM356.8 15.9c-81.2 0-140.7 53.7-152.3 124.7-16-5.8-33.4-8.7-55.1-8.7-85.6 0-149.4 65.3-149.4 149.4v1.5c0 82.6 62.4 149.3 150.8 149.3 55.1 0 87-18.9 114.6-45l-40.6-46.4c-21.8 20.3-45 33.4-74 33.4-49.3 0-84.1-40.6-84.1-89.9v-1.5c0-49.3 34.8-91.4 84.1-91.4 24.7 0 40.6 7.3 58 18.9 18.9 60.9 75.4 104.4 147.9 104.4 89.9 1.5 155.2-65.3 155.2-149.4 0.1-82.6-65.2-149.3-155.1-149.3z" />
<glyph unicode="&#xe664;" d="M306.4 240.3c-25.4 0-43.5-20.3-43.5-45v-0.7c0-24.7 18.1-45.7 44.2-45.7 25.4 0 43.5 20.3 43.5 45v0.7c0 24.7-18.8 45.7-44.2 45.7zM432 480h-352c-44.2 0-80-35.8-80-80v-352c0-44.2 35.8-80 80-80h352c44.2 0 80 35.8 80 80v352c0 44.2-35.8 80-80 80zM306.4 119.9c-40.6 0-70.3 26.8-76.1 62.4-8-2.9-16.7-4.4-27.6-4.4-42.8 0-74.7 32.6-74.7 74.7v0.7c0 41.3 31.2 74.7 75.4 74.7 27.6 0 43.5-9.4 57.3-22.5l-20.3-23.2c-10.9 10.2-22.5 16.7-37 16.7-24.7 0-42.1-20.3-42.1-45v-0.7c0-24.7 17.4-45.7 42.1-45.7 12.3 0 20.3 3.6 29 9.4 9.4 30.5 37.7 52.2 74 52.2 45 0.7 77.6-32.6 77.6-74.7 0-41.2-32.6-74.6-77.6-74.6z" />
<glyph unicode="&#xe665;" d="M256 480c-141.4 0-256-114.6-256-256s114.6-256 256-256 256 114.6 256 256-114.6 256-256 256zM306.4 119.9c-40.6 0-70.3 26.8-76.1 62.4-8-2.9-16.7-4.4-27.6-4.4-42.8 0-74.7 32.6-74.7 74.7v0.7c0 41.3 31.2 74.7 75.4 74.7 27.6 0 43.5-9.4 57.3-22.5l-20.3-23.2c-10.9 10.2-22.5 16.7-37 16.7-24.7 0-42.1-20.3-42.1-45v-0.7c0-24.7 17.4-45.7 42.1-45.7 12.3 0 20.3 3.6 29 9.4 9.4 30.5 37.7 52.2 74 52.2 45 0.7 77.6-32.6 77.6-74.7 0-41.2-32.6-74.6-77.6-74.6zM306.4 240.3c-25.4 0-43.5-20.3-43.5-45v-0.7c0-24.7 18.1-45.7 44.2-45.7 25.4 0 43.5 20.3 43.5 45v0.7c0 24.7-18.8 45.7-44.2 45.7z" />
</font>
</defs>
</svg>
